  0
SECTION
  2
HEADER
  9
$ACADVER
  1
AC1021
  9
$ACADMAINTVER
 70
     1
  9
$DWGCODEPAGE
  3
ANSI_932
  9
$LASTSAVEDBY
  1
1155tsue
  9
$INSBASE
 10
0.0
 20
0.0
 30
0.0
  9
$EXTMIN
 10
14.99999999999997
 20
6.0
 30
0.0
  9
$EXTMAX
 10
197.0
 20
285.0
 30
0.0
  9
$LIMMIN
 10
0.0
 20
0.0
  9
$LIMMAX
 10
210.0
 20
297.0
  9
$ORTHOMODE
 70
     1
  9
$REGENMODE
 70
     1
  9
$FILLMODE
 70
     1
  9
$QTEXTMODE
 70
     0
  9
$MIRRTEXT
 70
     1
  9
$LTSCALE
 40
0.5
  9
$ATTMODE
 70
     1
  9
$TEXTSIZE
 40
4.0
  9
$TRACEWID
 40
1.0
  9
$TEXTSTYLE
  7
EXTFONT
  9
$CLAYER
  8
L_1
  9
$CELTYPE
  6
BYLAYER
  9
$CECOLOR
 62
   256
  9
$CELTSCALE
 40
1.0
  9
$DISPSILH
 70
     0
  9
$DIMSCALE
 40
1.0
  9
$DIMASZ
 40
2.5
  9
$DIMEXO
 40
1.0
  9
$DIMDLI
 40
7.0
  9
$DIMRND
 40
0.0
  9
$DIMDLE
 40
0.0
  9
$DIMEXE
 40
1.0
  9
$DIMTP
 40
0.0
  9
$DIMTM
 40
0.0
  9
$DIMTXT
 40
3.0
  9
$DIMCEN
 40
5.0
  9
$DIMTSZ
 40
0.0
  9
$DIMTOL
 70
     0
  9
$DIMLIM
 70
     0
  9
$DIMTIH
 70
     0
  9
$DIMTOH
 70
     0
  9
$DIMSE1
 70
     0
  9
$DIMSE2
 70
     0
  9
$DIMTAD
 70
     1
  9
$DIMZIN
 70
     8
  9
$DIMBLK
  1

  9
$DIMASO
 70
     1
  9
$DIMSHO
 70
     1
  9
$DIMPOST
  1

  9
$DIMAPOST
  1

  9
$DIMALT
 70
     0
  9
$DIMALTD
 70
     2
  9
$DIMALTF
 40
0.0394
  9
$DIMLFAC
 40
1.0
  9
$DIMTOFL
 70
     1
  9
$DIMTVP
 40
0.0
  9
$DIMTIX
 70
     1
  9
$DIMSOXD
 70
     0
  9
$DIMSAH
 70
     0
  9
$DIMBLK1
  1

  9
$DIMBLK2
  1

  9
$DIMSTYLE
  2
X1
  9
$DIMCLRD
 70
     5
  9
$DIMCLRE
 70
     5
  9
$DIMCLRT
 70
     0
  9
$DIMTFAC
 40
0.6666666666666666
  9
$DIMGAP
 40
1.0
  9
$DIMJUST
 70
     0
  9
$DIMSD1
 70
     0
  9
$DIMSD2
 70
     0
  9
$DIMTOLJ
 70
     1
  9
$DIMTZIN
 70
     8
  9
$DIMALTZ
 70
     8
  9
$DIMALTTZ
 70
     8
  9
$DIMUPT
 70
     0
  9
$DIMDEC
 70
     3
  9
$DIMTDEC
 70
     2
  9
$DIMALTU
 70
     2
  9
$DIMALTTD
 70
     2
  9
$DIMTXSTY
  7
EXTFONT
  9
$DIMAUNIT
 70
     0
  9
$DIMADEC
 70
     0
  9
$DIMALTRND
 40
0.0
  9
$DIMAZIN
 70
     0
  9
$DIMDSEP
 70
    46
  9
$DIMATFIT
 70
     3
  9
$DIMFRAC
 70
     0
  9
$DIMLDRBLK
  1

  9
$DIMLUNIT
 70
     2
  9
$DIMLWD
 70
    -2
  9
$DIMLWE
 70
    -2
  9
$DIMTMOVE
 70
     2
  9
$DIMFXL
 40
1.0
  9
$DIMFXLON
 70
     0
  9
$DIMJOGANG
 40
0.7853981633974483
  9
$DIMTFILL
 70
     0
  9
$DIMTFILLCLR
 70
     0
  9
$DIMARCSYM
 70
     0
  9
$DIMLTYPE
  6

  9
$DIMLTEX1
  6

  9
$DIMLTEX2
  6

  9
$LUNITS
 70
     2
  9
$LUPREC
 70
     4
  9
$SKETCHINC
 40
1.0
  9
$FILLETRAD
 40
1.5
  9
$AUNITS
 70
     0
  9
$AUPREC
 70
     2
  9
$MENU
  1
acad
  9
$ELEVATION
 40
0.0
  9
$PELEVATION
 40
0.0
  9
$THICKNESS
 40
0.0
  9
$LIMCHECK
 70
     0
  9
$CHAMFERA
 40
10.0
  9
$CHAMFERB
 40
10.0
  9
$CHAMFERC
 40
0.0
  9
$CHAMFERD
 40
0.0
  9
$SKPOLY
 70
     0
  9
$TDCREATE
 40
2451061.735317477
  9
$TDUCREATE
 40
2451061.360317477
  9
$TDUPDATE
 40
2458411.363195070
  9
$TDUUPDATE
 40
2458410.988195070
  9
$TDINDWG
 40
0.6432021644
  9
$TDUSRTIMER
 40
0.6432021644
  9
$USRTIMER
 70
     1
  9
$ANGBASE
 50
0.0
  9
$ANGDIR
 70
     0
  9
$PDMODE
 70
    35
  9
$PDSIZE
 40
0.0
  9
$PLINEWID
 40
0.0
  9
$SPLFRAME
 70
     0
  9
$SPLINETYPE
 70
     6
  9
$SPLINESEGS
 70
     8
  9
$HANDSEED
  5
141038
  9
$SURFTAB1
 70
     6
  9
$SURFTAB2
 70
     6
  9
$SURFTYPE
 70
     6
  9
$SURFU
 70
     6
  9
$SURFV
 70
     6
  9
$UCSBASE
  2

  9
$UCSNAME
  2

  9
$UCSORG
 10
0.0
 20
0.0
 30
0.0
  9
$UCSXDIR
 10
1.0
 20
0.0
 30
0.0
  9
$UCSYDIR
 10
0.0
 20
1.0
 30
0.0
  9
$UCSORTHOREF
  2

  9
$UCSORTHOVIEW
 70
     0
  9
$UCSORGTOP
 10
0.0
 20
0.0
 30
0.0
  9
$UCSORGBOTTOM
 10
0.0
 20
0.0
 30
0.0
  9
$UCSORGLEFT
 10
0.0
 20
0.0
 30
0.0
  9
$UCSORGRIGHT
 10
0.0
 20
0.0
 30
0.0
  9
$UCSORGFRONT
 10
0.0
 20
0.0
 30
0.0
  9
$UCSORGBACK
 10
0.0
 20
0.0
 30
0.0
  9
$PUCSBASE
  2

  9
$PUCSNAME
  2

  9
$PUCSORG
 10
0.0
 20
0.0
 30
0.0
  9
$PUCSXDIR
 10
1.0
 20
0.0
 30
0.0
  9
$PUCSYDIR
 10
0.0
 20
1.0
 30
0.0
  9
$PUCSORTHOREF
  2

  9
$PUCSORTHOVIEW
 70
     0
  9
$PUCSORGTOP
 10
0.0
 20
0.0
 30
0.0
  9
$PUCSORGBOTTOM
 10
0.0
 20
0.0
 30
0.0
  9
$PUCSORGLEFT
 10
0.0
 20
0.0
 30
0.0
  9
$PUCSORGRIGHT
 10
0.0
 20
0.0
 30
0.0
  9
$PUCSORGFRONT
 10
0.0
 20
0.0
 30
0.0
  9
$PUCSORGBACK
 10
0.0
 20
0.0
 30
0.0
  9
$USERI1
 70
     0
  9
$USERI2
 70
     0
  9
$USERI3
 70
     0
  9
$USERI4
 70
     0
  9
$USERI5
 70
     0
  9
$USERR1
 40
0.0
  9
$USERR2
 40
0.0
  9
$USERR3
 40
0.0
  9
$USERR4
 40
0.0
  9
$USERR5
 40
0.0
  9
$WORLDVIEW
 70
     1
  9
$SHADEDGE
 70
     3
  9
$SHADEDIF
 70
    70
  9
$TILEMODE
 70
     1
  9
$MAXACTVP
 70
    16
  9
$PINSBASE
 10
0.0
 20
0.0
 30
0.0
  9
$PLIMCHECK
 70
     0
  9
$PEXTMIN
 10
1.000000000000000E+20
 20
1.000000000000000E+20
 30
1.000000000000000E+20
  9
$PEXTMAX
 10
-1.000000000000000E+20
 20
-1.000000000000000E+20
 30
-1.000000000000000E+20
  9
$PLIMMIN
 10
0.0
 20
0.0
  9
$PLIMMAX
 10
420.0
 20
297.0
  9
$UNITMODE
 70
     0
  9
$VISRETAIN
 70
     0
  9
$PLINEGEN
 70
     0
  9
$PSLTSCALE
 70
     0
  9
$TREEDEPTH
 70
  3020
  9
$CMLSTYLE
  2
STANDARD
  9
$CMLJUST
 70
     0
  9
$CMLSCALE
 40
1.0
  9
$PROXYGRAPHICS
 70
     1
  9
$MEASUREMENT
 70
     0
  9
$CELWEIGHT
370
    -1
  9
$ENDCAPS
280
     0
  9
$JOINSTYLE
280
     0
  9
$LWDISPLAY
290
     1
  9
$INSUNITS
 70
     0
  9
$HYPERLINKBASE
  1

  9
$STYLESHEET
  1
acadlt.ctb
  9
$XEDIT
290
     1
  9
$CEPSNTYPE
380
     0
  9
$PSTYLEMODE
290
     1
  9
$FINGERPRINTGUID
  2
{96A1CDCB-6870-4547-90D1-79A189387344}
  9
$VERSIONGUID
  2
{55ED8832-1912-4AF8-A53F-B8FAA5038338}
  9
$EXTNAMES
290
     1
  9
$PSVPSCALE
 40
0.0
  9
$OLESTARTUP
290
     0
  9
$SORTENTS
280
   127
  9
$INDEXCTL
280
     0
  9
$HIDETEXT
280
     0
  9
$XCLIPFRAME
290
     0
  9
$HALOGAP
280
     0
  9
$OBSCOLOR
 70
   257
  9
$OBSLTYPE
280
     0
  9
$INTERSECTIONDISPLAY
280
     0
  9
$INTERSECTIONCOLOR
 70
   257
  9
$DIMASSOC
280
     1
  9
$PROJECTNAME
  1

  9
$CAMERADISPLAY
290
     0
  9
$LENSLENGTH
 40
50.0
  9
$CAMERAHEIGHT
 40
0.0
  9
$STEPSPERSEC
 40
2.0
  9
$STEPSIZE
 40
6.0
  9
$3DDWFPREC
 40
2.0
  9
$PSOLWIDTH
 40
0.25
  9
$PSOLHEIGHT
 40
4.0
  9
$LOFTANG1
 40
1.570796326794896
  9
$LOFTANG2
 40
1.570796326794896
  9
$LOFTMAG1
 40
0.0
  9
$LOFTMAG2
 40
0.0
  9
$LOFTPARAM
 70
     7
  9
$LOFTNORMALS
280
     1
  9
$LATITUDE
 40
37.795
  9
$LONGITUDE
 40
-122.394
  9
$NORTHDIRECTION
 40
0.0
  9
$TIMEZONE
 70
 -8000
  9
$LIGHTGLYPHDISPLAY
280
     1
  9
$TILEMODELIGHTSYNCH
280
     1
  9
$CMATERIAL
347
131D79
  9
$SOLIDHIST
280
     1
  9
$SHOWHIST
280
     1
  9
$DWFFRAME
280
     2
  9
$DGNFRAME
280
     0
  9
$REALWORLDSCALE
290
     1
  9
$INTERFERECOLOR
 62
     1
  9
$INTERFEREOBJVS
345
131D86
  9
$INTERFEREVPVS
346
131D83
  9
$CSHADOW
280
     0
  9
$SHADOWPLANELOCATION
 40
0.0
  0
ENDSEC
  0
SECTION
  2
CLASSES
  0
CLASS
  1
DICTIONARYVAR
  2
AcDbDictionaryVar
  3
ObjectDBX Classes
 90
        0
 91
        5
280
     0
281
     0
  0
CLASS
  1
ACDBDICTIONARYWDFLT
  2
AcDbDictionaryWithDefault
  3
ObjectDBX Classes
 90
        0
 91
        1
280
     0
281
     0
  0
CLASS
  1
MATERIAL
  2
AcDbMaterial
  3
ObjectDBX Classes
 90
     1024
 91
        3
280
     0
281
     0
  0
CLASS
  1
VISUALSTYLE
  2
AcDbVisualStyle
  3
ObjectDBX Classes
 90
     4095
 91
       16
280
     0
281
     0
  0
CLASS
  1
TABLESTYLE
  2
AcDbTableStyle
  3
ObjectDBX Classes
 90
     4095
 91
        1
280
     0
281
     0
  0
CLASS
  1
SORTENTSTABLE
  2
AcDbSortentsTable
  3
ObjectDBX Classes
 90
        0
 91
        1
280
     0
281
     0
  0
CLASS
  1
PLOTSETTINGS
  2
AcDbPlotSettings
  3
ObjectDBX Classes
 90
        0
 91
        0
280
     0
281
     0
  0
ENDSEC
  0
SECTION
  2
TABLES
  0
TABLE
  2
VPORT
  5
131CF6
102
{ACAD_XDICTIONARY
360
132CE1
102
}
330
0
100
AcDbSymbolTable
 70
     1
  0
VPORT
  5
131D74
330
131CF6
100
AcDbSymbolTableRecord
100
AcDbViewportTableRecord
  2
*ACTIVE
 70
     0
 10
0.0
 20
0.0
 11
1.0
 21
1.0
 12
118.7825693552412
 22
201.9227086428222
 13
0.0
 23
0.0
 14
10.0
 24
10.0
 15
10.0
 25
10.0
 16
0.0
 26
0.0
 36
1.0
 17
0.0
 27
0.0
 37
0.0
 40
258.3553546169477
 41
1.564238410596026
 42
50.0
 43
0.0
 44
0.0
 50
0.0
 51
0.0
 71
     0
 72
   100
 73
     1
 74
     0
 75
     0
 76
     0
 77
     0
 78
     0
281
     0
 65
     1
110
0.0
120
0.0
130
0.0
111
1.0
121
0.0
131
0.0
112
0.0
122
1.0
132
0.0
 79
     0
146
0.0
348
131D82
 60
     3
 61
     5
292
     1
282
     1
141
0.0
142
0.0
 63
   250
421
  3355443
  0
ENDTAB
  0
TABLE
  2
LTYPE
  5
131CF3
330
0
100
AcDbSymbolTable
 70
     2
  0
LTYPE
  5
131CFF
330
131CF3
100
AcDbSymbolTableRecord
100
AcDbLinetypeTableRecord
  2
BYBLOCK
 70
     0
  3

 72
    65
 73
     0
 40
0.0
  0
LTYPE
  5
131D00
330
131CF3
100
AcDbSymbolTableRecord
100
AcDbLinetypeTableRecord
  2
BYLAYER
 70
     0
  3

 72
    65
 73
     0
 40
0.0
  0
LTYPE
  5
131D01
330
131CF3
100
AcDbSymbolTableRecord
100
AcDbLinetypeTableRecord
  2
CONTINUOUS
 70
     0
  3
Solid line
 72
    65
 73
     0
 40
0.0
  0
LTYPE
  5
131D10
330
131CF3
100
AcDbSymbolTableRecord
100
AcDbLinetypeTableRecord
  2
CENTER
 70
     0
  3
____ _ ____ _ ____ _ ____ _ ____ _ ____ _ ____ 
 72
    65
 73
     4
 40
50.8
 49
31.75
 74
     0
 49
-6.349999999999999
 74
     0
 49
6.349999999999999
 74
     0
 49
-6.349999999999999
 74
     0
  0
ENDTAB
  0
TABLE
  2
LAYER
  5
131CF0
102
{ACAD_XDICTIONARY
360
131ED6
102
}
330
0
100
AcDbSymbolTable
 70
     5
  0
LAYER
  5
131CFC
330
131CF0
100
AcDbSymbolTableRecord
100
AcDbLayerTableRecord
  2
0
 70
     0
 62
     7
  6
CONTINUOUS
370
    -3
390
131D77
347
131D7B
  0
LAYER
  5
131D1E
330
131CF0
100
AcDbSymbolTableRecord
100
AcDbLayerTableRecord
  2
DEFPOINTS
 70
     0
 62
     7
  6
CONTINUOUS
290
     0
370
    -3
390
131D77
347
131D7B
  0
LAYER
  5
131D1F
330
131CF0
100
AcDbSymbolTableRecord
100
AcDbLayerTableRecord
  2
L_1
 70
     0
 62
     7
  6
CONTINUOUS
370
    -3
390
131D77
347
131D7B
  0
LAYER
  5
131D21
330
131CF0
100
AcDbSymbolTableRecord
100
AcDbLayerTableRecord
  2
WAKU
 70
     0
 62
     7
  6
CONTINUOUS
370
    -3
390
131D77
347
131D7B
  0
LAYER
  5
131D22
330
131CF0
100
AcDbSymbolTableRecord
100
AcDbLayerTableRecord
  2
ROGO
 70
     0
 62
     7
  6
CONTINUOUS
370
    -3
390
131D77
347
131D7B
  0
ENDTAB
  0
TABLE
  2
STYLE
  5
131CF1
330
0
100
AcDbSymbolTable
 70
     3
  0
STYLE
  5
131CFD
330
131CF1
100
AcDbSymbolTableRecord
100
AcDbTextStyleTableRecord
  2
STANDARD
 70
     0
 40
0.0
 41
1.0
 50
0.0
 71
     0
 42
4.0
  3
txt
  4

  0
STYLE
  5
131D0E
330
131CF1
100
AcDbSymbolTableRecord
100
AcDbTextStyleTableRecord
  2
EXTFONT
 70
     0
 40
0.0
 41
1.0
 50
0.0
 71
     0
 42
4.0
  3
romans.shx
  4
extfont.shx
  0
STYLE
  5
131D0F
330
131CF1
100
AcDbSymbolTableRecord
100
AcDbTextStyleTableRecord
  2
BIGFONT
 70
     0
 40
0.0
 41
1.0
 50
0.0
 71
     0
 42
2.5
  3
txt.shx
  4
EXTFONT.SHX
  0
ENDTAB
  0
TABLE
  2
VIEW
  5
131CF4
330
0
100
AcDbSymbolTable
 70
     0
  0
ENDTAB
  0
TABLE
  2
UCS
  5
131CF5
330
0
100
AcDbSymbolTable
 70
     0
  0
ENDTAB
  0
TABLE
  2
APPID
  5
131CF7
330
0
100
AcDbSymbolTable
 70
     5
  0
APPID
  5
131CFE
330
131CF7
100
AcDbSymbolTableRecord
100
AcDbRegAppTableRecord
  2
ACAD
 70
     0
  0
APPID
  5
131D55
330
131CF7
100
AcDbSymbolTableRecord
100
AcDbRegAppTableRecord
  2
CONTENTTABDATA
 70
     0
  0
APPID
  5
131D56
330
131CF7
100
AcDbSymbolTableRecord
100
AcDbRegAppTableRecord
  2
CONTENTCURRENTTAB
 70
     0
  0
APPID
  5
131ED5
330
131CF7
100
AcDbSymbolTableRecord
100
AcDbRegAppTableRecord
  2
ACAD_PSEXT
 70
     0
  0
APPID
  5
132358
330
131CF7
100
AcDbSymbolTableRecord
100
AcDbRegAppTableRecord
  2
ACAD_EXEMPT_FROM_CAD_STANDARDS
 70
     0
  0
ENDTAB
  0
TABLE
  2
DIMSTYLE
  5
131CF8
330
0
100
AcDbSymbolTable
 70
     1
100
AcDbDimStyleTable
 71
     1
340
131D19
  0
DIMSTYLE
105
131D19
102
{ACAD_REACTORS
330
140A38
330
140D88
330
140D97
330
140DB4
330
140DF7
330
140D3C
330
140E3B
330
140E4A
330
140E57
330
140E64
330
140EAA
330
140EC1
330
140ECE
330
140F16
330
140F23
330
140F50
330
140F69
330
140F95
102
}
330
131CF8
100
AcDbSymbolTableRecord
100
AcDbDimStyleTableRecord
  2
X1
 70
     0
 41
2.5
 42
1.0
 43
7.0
 44
1.0
 73
     0
 74
     0
 77
     1
 78
     8
140
3.0
141
5.0
143
0.0394
146
0.6666666666666666
147
1.0
172
     1
174
     1
176
     5
177
     5
271
     3
272
     2
279
     2
284
     8
285
     8
286
     8
340
131D0E
  0
ENDTAB
  0
TABLE
  2
BLOCK_RECORD
  5
131CEF
330
0
100
AcDbSymbolTable
 70
    21
  0
BLOCK_RECORD
  5
131D05
102
{ACAD_XDICTIONARY
360
1325CB
102
}
330
131CEF
100
AcDbSymbolTableRecord
100
AcDbBlockTableRecord
  2
*MODEL_SPACE
340
131D93
 70
     0
280
     1
281
     0
  0
BLOCK_RECORD
  5
131D02
330
131CEF
100
AcDbSymbolTableRecord
100
AcDbBlockTableRecord
  2
*PAPER_SPACE
340
131D94
 70
     0
280
     1
281
     0
  0
BLOCK_RECORD
  5
131D0A
330
131CEF
100
AcDbSymbolTableRecord
100
AcDbBlockTableRecord
  2
A4SPWAKU
340
0
102
{BLKREFS
331
131CEE
102
}
 70
     0
280
     1
281
     0
  0
BLOCK_RECORD
  5
131D0B
330
131CEF
100
AcDbSymbolTableRecord
100
AcDbBlockTableRecord
  2
KGS_ROGO
340
0
102
{BLKREFS
331
131CEB
102
}
 70
     0
280
     1
281
     0
  0
BLOCK_RECORD
  5
131D0C
330
131CEF
100
AcDbSymbolTableRecord
100
AcDbBlockTableRecord
  2
*X2
340
0
102
{BLKREFS
331
131B86
102
}
 70
     0
280
     1
281
     0
  0
BLOCK_RECORD
  5
140B89
330
131CEF
100
AcDbSymbolTableRecord
100
AcDbBlockTableRecord
  2
*D3
340
0
 70
     0
280
     1
281
     0
  0
BLOCK_RECORD
  5
140D3D
330
131CEF
100
AcDbSymbolTableRecord
100
AcDbBlockTableRecord
  2
*D4
340
0
 70
     0
280
     1
281
     0
  0
BLOCK_RECORD
  5
140D89
330
131CEF
100
AcDbSymbolTableRecord
100
AcDbBlockTableRecord
  2
*D5
340
0
 70
     0
280
     1
281
     0
  0
BLOCK_RECORD
  5
140D98
330
131CEF
100
AcDbSymbolTableRecord
100
AcDbBlockTableRecord
  2
*D6
340
0
 70
     0
280
     1
281
     0
  0
BLOCK_RECORD
  5
140DB5
330
131CEF
100
AcDbSymbolTableRecord
100
AcDbBlockTableRecord
  2
*D7
340
0
 70
     0
280
     1
281
     0
  0
BLOCK_RECORD
  5
140DF8
330
131CEF
100
AcDbSymbolTableRecord
100
AcDbBlockTableRecord
  2
*D8
340
0
 70
     0
280
     1
281
     0
  0
BLOCK_RECORD
  5
140E3C
330
131CEF
100
AcDbSymbolTableRecord
100
AcDbBlockTableRecord
  2
*D9
340
0
 70
     0
280
     1
281
     0
  0
BLOCK_RECORD
  5
140E4B
330
131CEF
100
AcDbSymbolTableRecord
100
AcDbBlockTableRecord
  2
*D10
340
0
 70
     0
280
     1
281
     0
  0
BLOCK_RECORD
  5
140E58
330
131CEF
100
AcDbSymbolTableRecord
100
AcDbBlockTableRecord
  2
*D11
340
0
 70
     0
280
     1
281
     0
  0
BLOCK_RECORD
  5
140E65
330
131CEF
100
AcDbSymbolTableRecord
100
AcDbBlockTableRecord
  2
*D12
340
0
 70
     0
280
     1
281
     0
  0
BLOCK_RECORD
  5
140EAB
330
131CEF
100
AcDbSymbolTableRecord
100
AcDbBlockTableRecord
  2
*D13
340
0
 70
     0
280
     1
281
     0
  0
BLOCK_RECORD
  5
140EC2
330
131CEF
100
AcDbSymbolTableRecord
100
AcDbBlockTableRecord
  2
*D14
340
0
 70
     0
280
     1
281
     0
  0
BLOCK_RECORD
  5
140ECF
330
131CEF
100
AcDbSymbolTableRecord
100
AcDbBlockTableRecord
  2
*D15
340
0
 70
     0
280
     1
281
     0
  0
BLOCK_RECORD
  5
140F17
330
131CEF
100
AcDbSymbolTableRecord
100
AcDbBlockTableRecord
  2
*D16
340
0
 70
     0
280
     1
281
     0
  0
BLOCK_RECORD
  5
140F24
330
131CEF
100
AcDbSymbolTableRecord
100
AcDbBlockTableRecord
  2
*D17
340
0
 70
     0
280
     1
281
     0
  0
BLOCK_RECORD
  5
140F51
330
131CEF
100
AcDbSymbolTableRecord
100
AcDbBlockTableRecord
  2
*D18
340
0
 70
     0
280
     1
281
     0
  0
BLOCK_RECORD
  5
140F6A
330
131CEF
100
AcDbSymbolTableRecord
100
AcDbBlockTableRecord
  2
*D19
340
0
 70
     0
280
     1
281
     0
  0
BLOCK_RECORD
  5
140F96
330
131CEF
100
AcDbSymbolTableRecord
100
AcDbBlockTableRecord
  2
*D20
340
0
 70
     0
280
     1
281
     0
  0
ENDTAB
  0
ENDSEC
  0
SECTION
  2
BLOCKS
  0
BLOCK
  5
131D25
330
131D05
100
AcDbEntity
  8
0
100
AcDbBlockBegin
  2
*MODEL_SPACE
 70
     0
 10
0.0
 20
0.0
 30
0.0
  3
*MODEL_SPACE
  1

  0
ENDBLK
  5
131D26
330
131D05
100
AcDbEntity
  8
0
100
AcDbBlockEnd
  0
BLOCK
  5
131D23
330
131D02
100
AcDbEntity
 67
     1
  8
0
100
AcDbBlockBegin
  2
*PAPER_SPACE
 70
     0
 10
0.0
 20
0.0
 30
0.0
  3
*PAPER_SPACE
  1

  0
ENDBLK
  5
131D24
330
131D02
100
AcDbEntity
 67
     1
  8
0
100
AcDbBlockEnd
  0
BLOCK
  5
98A
330
131D0A
100
AcDbEntity
  8
0
100
AcDbBlockBegin
  2
A4SPWAKU
 70
     0
 10
0.0
 20
0.0
 30
0.0
  3
A4SPWAKU
  1

  0
LINE
  5
127AFA
330
131D0A
100
AcDbEntity
  8
WAKU
 62
     5
100
AcDbLine
 10
109.9999999999999
 20
17.334
 30
0.0
 11
80.99999999999994
 21
17.334
 31
0.0
  0
LINE
  5
127AFB
330
131D0A
100
AcDbEntity
  8
WAKU
 62
     5
100
AcDbLine
 10
196.9999999999999
 20
3.0
 30
0.0
 11
14.99999999999997
 21
3.0
 31
0.0
  0
LINE
  5
127AFC
330
131D0A
100
AcDbEntity
  8
WAKU
 62
     5
100
AcDbLine
 10
197.0
 20
282.0
 30
0.0
 11
14.99999999999997
 21
282.0
 31
0.0
  0
LINE
  5
127AFD
330
131D0A
100
AcDbEntity
  8
WAKU
 62
     1
100
AcDbLine
 10
195.9999999999999
 20
267.0
 30
0.0
 11
15.99999999999997
 21
267.0
 31
0.0
  0
LINE
  5
127AFE
330
131D0A
100
AcDbEntity
  8
WAKU
 62
     1
100
AcDbLine
 10
195.9999999999999
 20
281.0
 30
0.0
 11
15.99999999999997
 21
281.0
 31
0.0
  0
LINE
  5
127AFF
330
131D0A
100
AcDbEntity
  8
WAKU
 62
     1
100
AcDbLine
 10
195.9999999999999
 20
4.0
 30
0.0
 11
15.99999999999997
 21
4.0
 31
0.0
  0
LINE
  5
127B00
330
131D0A
100
AcDbEntity
  8
WAKU
 62
     5
100
AcDbLine
 10
80.99999999999994
 20
10.668
 30
0.0
 11
109.9999999999999
 21
10.668
 31
0.0
  0
LINE
  5
127B01
330
131D0A
100
AcDbEntity
  8
WAKU
 62
     1
100
AcDbLine
 10
16.0
 20
24.0
 30
0.0
 11
109.9999999999999
 21
24.0
 31
0.0
  0
LINE
  5
127B02
330
131D0A
100
AcDbEntity
  8
WAKU
 62
     5
100
AcDbLine
 10
14.99999999999997
 20
282.0
 30
0.0
 11
14.99999999999997
 21
3.0
 31
0.0
  0
LINE
  5
127B03
330
131D0A
100
AcDbEntity
  8
WAKU
 62
     1
100
AcDbLine
 10
15.99999999999997
 20
281.0
 30
0.0
 11
15.99999999999997
 21
4.0
 31
0.0
  0
LINE
  5
127B04
330
131D0A
100
AcDbEntity
  8
WAKU
 62
     5
100
AcDbLine
 10
32.24999999999994
 20
24.0
 30
0.0
 11
32.24999999999994
 21
4.0
 31
0.0
  0
TEXT
  5
127B05
330
131D0A
100
AcDbEntity
  8
WAKU
 62
     5
100
AcDbText
 10
18.99999999999994
 20
20.0
 30
0.0
 40
2.5
  1
承　　
  7
BIGFONT
100
AcDbText
  0
TEXT
  5
127B06
330
131D0A
100
AcDbEntity
  8
WAKU
 62
     5
100
AcDbText
 10
26.49999999999995
 20
20.0
 30
0.0
 40
2.5
  1
認
  7
BIGFONT
100
AcDbText
  0
TEXT
  5
127B07
330
131D0A
100
AcDbEntity
  8
WAKU
 62
     5
100
AcDbText
 10
34.99999999999995
 20
20.0
 30
0.0
 40
2.5
  1
校
  7
BIGFONT
100
AcDbText
  0
LINE
  5
127B08
330
131D0A
100
AcDbEntity
  8
WAKU
 62
     5
100
AcDbLine
 10
64.74999999999994
 20
24.0
 30
0.0
 11
64.74999999999994
 21
4.0
 31
0.0
  0
LINE
  5
127B09
330
131D0A
100
AcDbEntity
  8
WAKU
 62
     5
100
AcDbLine
 10
48.49999999999994
 20
24.0
 30
0.0
 11
48.49999999999994
 21
4.0
 31
0.0
  0
TEXT
  5
127B0A
330
131D0A
100
AcDbEntity
  8
WAKU
 62
     5
100
AcDbText
 10
42.99999999999994
 20
20.0
 30
0.0
 40
2.5
  1
合
  7
BIGFONT
100
AcDbText
  0
TEXT
  5
127B0B
330
131D0A
100
AcDbEntity
  8
WAKU
 62
     5
100
AcDbText
 10
51.49999999999995
 20
20.0
 30
0.0
 40
2.5
  1
設
  7
BIGFONT
100
AcDbText
  0
TEXT
  5
127B0C
330
131D0A
100
AcDbEntity
  8
WAKU
 62
     5
100
AcDbText
 10
59.49999999999994
 20
20.0
 30
0.0
 40
2.5
  1
計
  7
BIGFONT
100
AcDbText
  0
TEXT
  5
127B0D
330
131D0A
100
AcDbEntity
  8
WAKU
 62
     5
100
AcDbText
 10
67.99999999999994
 20
20.0
 30
0.0
 40
2.5
  1
製
  7
BIGFONT
100
AcDbText
  0
LINE
  5
127B0E
330
131D0A
100
AcDbEntity
  8
WAKU
 62
     1
100
AcDbLine
 10
80.99999999999994
 20
24.0
 30
0.0
 11
80.99999999999994
 21
4.0
 31
0.0
  0
TEXT
  5
127B0F
330
131D0A
100
AcDbEntity
  8
WAKU
 62
     5
100
AcDbText
 10
82.99999999999995
 20
6.0
 30
0.0
 40
2.5
  1
一般公差±
  7
BIGFONT
100
AcDbText
  0
TEXT
  5
127B10
330
131D0A
100
AcDbEntity
  8
WAKU
 62
     5
100
AcDbText
 10
86.99999999999993
 20
12.5
 30
0.0
 40
2.5
  1
位
  7
BIGFONT
100
AcDbText
  0
TEXT
  5
127B11
330
131D0A
100
AcDbEntity
  8
WAKU
 62
     5
100
AcDbText
 10
86.99999999999993
 20
19.0
 30
0.0
 40
2.5
  1
度
  7
BIGFONT
100
AcDbText
  0
TEXT
  5
127B12
330
131D0A
100
AcDbEntity
  8
WAKU
 62
     5
100
AcDbText
 10
75.49999999999994
 20
20.0
 30
0.0
 40
2.5
  1
図
  7
BIGFONT
100
AcDbText
  0
TEXT
  5
127B13
330
131D0A
100
AcDbEntity
  8
WAKU
 62
     5
100
AcDbText
 10
82.99999999999995
 20
19.0
 30
0.0
 40
2.5
  1
尺　
  7
BIGFONT
100
AcDbText
  0
TEXT
  5
127B14
330
131D0A
100
AcDbEntity
  8
WAKU
 62
     5
100
AcDbText
 10
82.99999999999995
 20
12.5
 30
0.0
 40
2.5
  1
単
  7
BIGFONT
100
AcDbText
  0
LINE
  5
127B15
330
131D0A
100
AcDbEntity
  8
WAKU
 62
     1
100
AcDbLine
 10
65.99999999999997
 20
281.0
 30
0.0
 11
65.99999999999997
 21
267.0
 31
0.0
  0
LINE
  5
127B16
330
131D0A
100
AcDbEntity
  8
WAKU
 62
     5
100
AcDbLine
 10
196.9999999999999
 20
3.0
 30
0.0
 11
197.0
 21
282.0
 31
0.0
  0
LINE
  5
127B17
330
131D0A
100
AcDbEntity
  8
WAKU
 62
     1
100
AcDbLine
 10
195.9999999999999
 20
4.0
 30
0.0
 11
195.9999999999999
 21
281.0
 31
0.0
  0
TEXT
  5
127B18
330
131D0A
100
AcDbEntity
  8
WAKU
 62
     5
100
AcDbText
 10
170.3385776417713
 20
18.11712886075921
 30
0.0
 40
2.5
  1
項
  7
BIGFONT
100
AcDbText
  0
LINE
  5
127B19
330
131D0A
100
AcDbEntity
  8
WAKU
 62
     5
100
AcDbLine
 10
109.9999999999999
 20
22.11712886075924
 30
0.0
 11
196.0
 21
22.11712886075924
 31
0.0
  0
LINE
  5
127B1A
330
131D0A
100
AcDbEntity
  8
WAKU
 62
     5
100
AcDbLine
 10
109.9999999999999
 20
27.11712886075924
 30
0.0
 11
196.0
 21
27.11712886075924
 31
0.0
  0
LINE
  5
127B1B
330
131D0A
100
AcDbEntity
  8
WAKU
 62
     5
100
AcDbLine
 10
109.9999999999999
 20
32.11712886075924
 30
0.0
 11
196.0
 21
32.11712886075924
 31
0.0
  0
LINE
  5
127B1C
330
131D0A
100
AcDbEntity
  8
WAKU
 62
     1
100
AcDbLine
 10
109.9999999999999
 20
17.334
 30
0.0
 11
195.9999999999999
 21
17.334
 31
0.0
  0
LINE
  5
127B1D
330
131D0A
100
AcDbEntity
  8
WAKU
 62
     1
100
AcDbLine
 10
109.9999999999999
 20
37.46367695428324
 30
0.0
 11
195.9999999999999
 21
37.46367695428324
 31
0.0
  0
LINE
  5
127B1E
330
131D0A
100
AcDbEntity
  8
WAKU
 62
     1
100
AcDbLine
 10
109.9999999999999
 20
37.46367695428324
 30
0.0
 11
109.9999999999999
 21
4.0
 31
0.0
  0
TEXT
  5
127B1F
330
131D0A
100
AcDbEntity
  8
WAKU
 62
     5
100
AcDbText
 10
118.9549771439077
 20
18.11712886075921
 30
0.0
 40
2.5
  1
年月日
  7
BIGFONT
100
AcDbText
  0
LINE
  5
127B20
330
131D0A
100
AcDbEntity
  8
WAKU
 62
     5
100
AcDbLine
 10
116.9549771439077
 20
37.46367695428324
 30
0.0
 11
116.9549771439077
 21
17.334
 31
0.0
  0
LINE
  5
127B21
330
131D0A
100
AcDbEntity
  8
WAKU
 62
     5
100
AcDbLine
 10
113.2049771439077
 20
31.11712886075924
 30
0.0
 11
111.2049771439077
 21
28.11712886075924
 31
0.0
  0
LINE
  5
127B22
330
131D0A
100
AcDbEntity
  8
WAKU
 62
     5
100
AcDbLine
 10
111.2049771439077
 20
28.11712886075924
 30
0.0
 11
115.2049771439077
 21
28.11712886075924
 31
0.0
  0
LINE
  5
127B23
330
131D0A
100
AcDbEntity
  8
WAKU
 62
     5
100
AcDbLine
 10
113.2049771439077
 20
26.11712886075924
 30
0.0
 11
111.2049771439077
 21
23.11712886075924
 31
0.0
  0
LINE
  5
127B24
330
131D0A
100
AcDbEntity
  8
WAKU
 62
     5
100
AcDbLine
 10
111.2049771439077
 20
23.11712886075924
 30
0.0
 11
115.2049771439077
 21
23.11712886075924
 31
0.0
  0
LINE
  5
127B25
330
131D0A
100
AcDbEntity
  8
WAKU
 62
     5
100
AcDbLine
 10
115.2049771439077
 20
23.11712886075924
 30
0.0
 11
113.2049771439077
 21
26.11712886075924
 31
0.0
  0
LINE
  5
127B26
330
131D0A
100
AcDbEntity
  8
WAKU
 62
     5
100
AcDbLine
 10
115.2049771439077
 20
28.11712886075924
 30
0.0
 11
113.2049771439077
 21
31.11712886075924
 31
0.0
  0
LINE
  5
127B27
330
131D0A
100
AcDbEntity
  8
WAKU
 62
     5
100
AcDbLine
 10
113.2049771439077
 20
36.11712886075924
 30
0.0
 11
111.2049771439077
 21
33.11712886075924
 31
0.0
  0
LINE
  5
127B28
330
131D0A
100
AcDbEntity
  8
WAKU
 62
     5
100
AcDbLine
 10
111.2049771439077
 20
33.11712886075924
 30
0.0
 11
115.2049771439077
 21
33.11712886075924
 31
0.0
  0
LINE
  5
127B29
330
131D0A
100
AcDbEntity
  8
WAKU
 62
     5
100
AcDbLine
 10
115.2049771439077
 20
33.11712886075924
 30
0.0
 11
113.2049771439077
 21
36.11712886075924
 31
0.0
  0
LINE
  5
127B2A
330
131D0A
100
AcDbEntity
  8
WAKU
 62
     5
100
AcDbLine
 10
129.9549771439077
 20
37.46367695428324
 30
0.0
 11
129.9549771439078
 21
17.334
 31
0.0
  0
TEXT
  5
127B2B
330
131D0A
100
AcDbEntity
  8
WAKU
 62
     5
100
AcDbText
 10
139.3385776417713
 20
18.11712886075921
 30
0.0
 40
2.5
  1
変
  7
BIGFONT
100
AcDbText
  0
TEXT
  5
127B2C
330
131D0A
100
AcDbEntity
  8
WAKU
 62
     5
100
AcDbText
 10
150.3385776417713
 20
18.11712886075921
 30
0.0
 40
2.5
  1
更
  7
EXTFONT
100
AcDbText
  0
TEXT
  5
127B2D
330
131D0A
100
AcDbEntity
  8
WAKU
 62
     5
100
AcDbText
 10
160.3385776417713
 20
18.11712886075921
 30
0.0
 40
2.5
  1
事
  7
BIGFONT
100
AcDbText
  0
TEXT
  5
127B2E
330
131D0A
100
AcDbEntity
  8
WAKU
 62
     5
100
AcDbText
 10
184.8176084748399
 20
18.11712886075921
 30
0.0
 40
2.5
  1
担　
  7
BIGFONT
100
AcDbText
  0
LINE
  5
127B2F
330
131D0A
100
AcDbEntity
  8
WAKU
 62
     5
100
AcDbLine
 10
182.8176084748399
 20
37.46367695428324
 30
0.0
 11
182.8176084748399
 21
17.334
 31
0.0
  0
TEXT
  5
127B30
330
131D0A
100
AcDbEntity
  8
WAKU
 62
     5
100
AcDbText
 10
190.3176084748399
 20
18.11712886075921
 30
0.0
 40
2.5
  1
当
  7
BIGFONT
100
AcDbText
  0
LINE
  5
127B31
330
131D0A
100
AcDbEntity
  8
WAKU
 62
     1
100
AcDbLine
 10
145.9999999999999
 20
267.0
 30
0.0
 11
145.9999999999999
 21
281.0
 31
0.0
  0
INSERT
  5
131CEB
330
131D0A
100
AcDbEntity
  8
WAKU
100
AcDbBlockReference
  2
KGS_ROGO
 10
38.0
 20
4.0
 30
0.0
  0
ENDBLK
  5
131CED
330
131D0A
100
AcDbEntity
  8
0
100
AcDbBlockEnd
  0
BLOCK
  5
127B34
330
131D0B
100
AcDbEntity
  8
0
100
AcDbBlockBegin
  2
KGS_ROGO
 70
     0
 10
0.0
 20
0.0
 30
0.0
  3
KGS_ROGO
  1

  0
LINE
  5
130691
330
131D0B
100
AcDbEntity
  8
ROGO
100
AcDbLine
 10
105.4963324367926
 20
4.904872625247259
 30
0.0
 11
101.8963324367925
 21
4.904872625247259
 31
0.0
1001
ACAD
1000
ASC_BOUNDS
1002
{
1070
    16
1005
131B86
1002
}
  0
LINE
  5
130692
330
131D0B
100
AcDbEntity
  8
ROGO
100
AcDbLine
 10
105.4963324367926
 20
5.70487262524726
 30
0.0
 11
101.8963324367925
 21
5.70487262524726
 31
0.0
1001
ACAD
1000
ASC_BOUNDS
1002
{
1070
    16
1005
131B86
1002
}
  0
LINE
  5
130693
330
131D0B
100
AcDbEntity
  8
ROGO
100
AcDbLine
 10
87.83999999999998
 20
10.5
 30
0.0
 11
86.10358457295278
 21
8.370944338154034
 31
0.0
1001
ACAD
1000
ASC_BOUNDS
1002
{
1070
    16
1005
131B86
1002
}
  0
LINE
  5
130694
330
131D0B
100
AcDbEntity
  8
ROGO
100
AcDbLine
 10
80.0
 20
2.5
 30
0.0
 11
88.78800573177086
 21
2.5
 31
0.0
1001
ACAD
1000
ASC_BOUNDS
1002
{
1070
    16
1005
0
1005
131B86
1005
131B86
1002
}
  0
LINE
  5
130695
330
131D0B
100
AcDbEntity
  8
ROGO
100
AcDbLine
 10
80.0
 20
2.5
 30
0.0
 11
80.0
 21
10.5
 31
0.0
1001
ACAD
1000
ASC_BOUNDS
1002
{
1070
    16
1005
131B86
1002
}
  0
LINE
  5
130696
330
131D0B
100
AcDbEntity
  8
ROGO
100
AcDbLine
 10
84.89600000000001
 20
10.5
 30
0.0
 11
83.58317176310258
 21
8.890313546366764
 31
0.0
1001
ACAD
1000
ASC_BOUNDS
1002
{
1070
    16
1005
131B86
1002
}
  0
ARC
  5
130697
330
131D0B
100
AcDbEntity
  8
ROGO
100
AcDbCircle
 10
86.3109763633413
 20
6.66557040098649
 30
0.0
 40
3.52
100
AcDbArc
 50
140.8
 51
221.0
1001
ACAD
1000
ASC_BOUNDS
1002
{
1070
    16
1005
131B86
1002
}
  0
LINE
  5
130698
330
131D0B
100
AcDbEntity
  8
ROGO
100
AcDbLine
 10
85.26800573177085
 20
2.5
 30
0.0
 11
86.91891469324572
 21
4.524214376854127
 31
0.0
1001
ACAD
1000
ASC_BOUNDS
1002
{
1070
    16
1005
131B86
1002
}
  0
LINE
  5
130699
330
131D0B
100
AcDbEntity
  8
ROGO
100
AcDbLine
 10
83.65439864095716
 20
4.356242618939903
 30
0.0
 11
85.26800573177085
 21
2.5
 31
0.0
1001
ACAD
1000
ASC_BOUNDS
1002
{
1070
    16
1005
131B86
1002
}
  0
ARC
  5
13069A
330
131D0B
100
AcDbEntity
  8
ROGO
100
AcDbCircle
 10
87.61007665899368
 20
7.14227937377357
 30
0.0
 40
1.944
100
AcDbArc
 50
140.8
 51
227.8946518402705
1001
ACAD
1000
ASC_BOUNDS
1002
{
1070
    16
1005
131B86
1002
}
  0
ARC
  5
13069B
330
131D0B
100
AcDbEntity
  8
ROGO
100
AcDbCircle
 10
85.64800573177087
 20
5.560742433224485
 30
0.0
 40
1.64
100
AcDbArc
 50
320.8000000000001
 51
37.21227408044005
1001
ACAD
1000
ASC_BOUNDS
1002
{
1070
    16
1005
131B86
1002
}
  0
LINE
  5
13069C
330
131D0B
100
AcDbEntity
  8
ROGO
100
AcDbLine
 10
86.14292123504062
 20
5.866900621416016
 30
0.0
 11
86.28800573177086
 21
5.700000000000004
 31
0.0
  0
LINE
  5
13069D
330
131D0B
100
AcDbEntity
  8
ROGO
100
AcDbLine
 10
86.28800573177086
 20
5.700000000000004
 30
0.0
 11
86.95410235602322
 21
6.552564800443848
 31
0.0
1001
ACAD
1000
ASC_BOUNDS
1002
{
1070
    16
1005
131B86
1002
}
  0
LINE
  5
13069E
330
131D0B
100
AcDbEntity
  8
ROGO
100
AcDbLine
 10
80.0
 20
10.5
 30
0.0
 11
84.89600000000001
 21
10.5
 31
0.0
1001
ACAD
1000
ASC_BOUNDS
1002
{
1070
    16
1005
131B86
1002
}
  0
LINE
  5
13069F
330
131D0B
100
AcDbEntity
  8
ROGO
100
AcDbLine
 10
95.95109060433104
 20
3.29237262524726
 30
0.0
 11
99.02969275922615
 21
3.29237262524726
 31
0.0
1001
ACAD
1000
ASC_BOUNDS
1002
{
1070
    16
1005
131B86
1002
}
  0
LINE
  5
1306A0
330
131D0B
100
AcDbEntity
  8
ROGO
100
AcDbLine
 10
99.03662886335618
 20
2.50487262524726
 30
0.0
 11
95.95109060433104
 21
2.50487262524726
 31
0.0
1001
ACAD
1000
ASC_BOUNDS
1002
{
1070
    16
1005
131B86
1002
}
  0
ARC
  5
1306A1
330
131D0B
100
AcDbEntity
  8
ROGO
100
AcDbCircle
 10
95.682196917367
 20
9.089714793971642
 30
0.0
 40
3.377107464545258
100
AcDbArc
 50
271.1689267760436
 51
320.5442317668708
1001
ACAD
1000
ASC_BOUNDS
1002
{
1070
    16
1005
131B86
1002
}
  0
ARC
  5
1306A2
330
131D0B
100
AcDbEntity
  8
ROGO
100
AcDbCircle
 10
95.65992698037268
 20
9.08176919548581
 30
0.0
 40
2.617685440185927
100
AcDbArc
 50
272.0930120153501
 51
351.3442689889211
1001
ACAD
1000
ASC_BOUNDS
1002
{
1070
    16
1005
131B86
1002
}
  0
LINE
  5
1306A3
330
131D0B
100
AcDbEntity
  8
ROGO
100
AcDbLine
 10
91.35999999999999
 20
10.5
 30
0.0
 11
90.18690026038271
 21
9.061637610655532
 31
0.0
1001
ACAD
1000
ASC_BOUNDS
1002
{
1070
    16
1005
131B86
1002
}
  0
LINE
  5
1306A4
330
131D0B
100
AcDbEntity
  8
ROGO
100
AcDbLine
 10
88.78800573177086
 20
2.5
 30
0.0
 11
89.74982365472058
 21
3.679305287561994
 31
0.0
1001
ACAD
1000
ASC_BOUNDS
1002
{
1070
    16
1005
131B86
1002
}
  0
ARC
  5
1306A5
330
131D0B
100
AcDbEntity
  8
ROGO
100
AcDbCircle
 10
91.33381810366488
 20
8.126234242711555
 30
0.0
 40
1.48
100
AcDbArc
 50
140.8
 51
209.9148748217801
1001
ACAD
1000
ASC_BOUNDS
1002
{
1070
    16
1005
131B86
1002
}
  0
ARC
  5
1306A6
330
131D0B
100
AcDbEntity
  8
ROGO
100
AcDbCircle
 10
87.20800573177086
 20
5.752361400302705
 30
0.0
 40
3.28
100
AcDbArc
 50
320.8000000000001
 51
29.91487482178021
1001
ACAD
1000
ASC_BOUNDS
1002
{
1070
    16
1005
131B86
1002
}
  0
LINE
  5
1306A7
330
131D0B
100
AcDbEntity
  8
ROGO
100
AcDbLine
 10
95.95109060433104
 20
3.29237262524726
 30
0.0
 11
95.95109060433104
 21
2.50487262524726
 31
0.0
1001
ACAD
1000
ASC_BOUNDS
1002
{
1070
    16
1005
131B86
1002
}
  0
LINE
  5
1306A8
330
131D0B
100
AcDbEntity
  8
ROGO
100
AcDbLine
 10
95.75109060433103
 20
6.467372625247259
 30
0.0
 11
95.75109060433103
 21
5.713310125247259
 31
0.0
1001
ACAD
1000
ASC_BOUNDS
1002
{
1070
    16
1005
131B86
1002
}
  0
LINE
  5
1306A9
330
131D0B
100
AcDbEntity
  8
ROGO
100
AcDbLine
 10
87.83999999999998
 20
10.5
 30
0.0
 11
91.35999999999999
 21
10.5
 31
0.0
1001
ACAD
1000
ASC_BOUNDS
1002
{
1070
    16
1005
131B86
1002
}
  0
ARC
  5
1306AA
330
131D0B
100
AcDbEntity
  8
ROGO
100
AcDbCircle
 10
98.87039168177858
 20
4.374610208587894
 30
0.0
 40
1.093898999026384
100
AcDbArc
 50
278.3735809968416
 51
351.0900569123015
1001
ACAD
1000
ASC_BOUNDS
1002
{
1070
    16
1005
131B86
1002
}
  0
ARC
  5
1306AB
330
131D0B
100
AcDbEntity
  8
ROGO
100
AcDbCircle
 10
98.90545086559864
 20
4.349814432627754
 30
0.0
 40
1.849599399793392
100
AcDbArc
 50
273.8193719391161
 51
3.749775852808881
1001
ACAD
1000
ASC_BOUNDS
1002
{
1070
    16
1005
131B86
1002
}
  0
LINE
  5
1306AC
330
131D0B
100
AcDbEntity
  8
ROGO
100
AcDbLine
 10
98.75906354243843
 20
7.697685125247259
 30
0.0
 11
101.727340604331
 21
7.697685125247259
 31
0.0
1001
ACAD
1000
ASC_BOUNDS
1002
{
1070
    16
1005
131B86
1002
}
  0
ARC
  5
1306AD
330
131D0B
100
AcDbEntity
  8
ROGO
100
AcDbCircle
 10
95.682196917367
 20
9.089714793971642
 30
0.0
 40
3.377107464545258
100
AcDbArc
 50
335.6571507415799
 51
353.1652020559272
1001
ACAD
1000
ASC_BOUNDS
1002
{
1070
    16
1005
131B86
1002
}
  0
LINE
  5
1306AE
330
131D0B
100
AcDbEntity
  8
ROGO
100
AcDbLine
 10
99.95109060433101
 20
6.943622625247259
 30
0.0
 11
99.95109060433101
 21
4.205185125247398
 31
0.0
1001
ACAD
1000
ASC_BOUNDS
1002
{
1070
    16
1005
131B86
1002
}
  0
LINE
  5
1306AF
330
131D0B
100
AcDbEntity
  8
ROGO
100
AcDbLine
 10
98.2897135962067
 20
6.943622625247259
 30
0.0
 11
99.95109060433101
 21
6.943622625247259
 31
0.0
1001
ACAD
1000
ASC_BOUNDS
1002
{
1070
    16
1005
131B86
1002
}
  0
LINE
  5
1306B0
330
131D0B
100
AcDbEntity
  8
ROGO
100
AcDbLine
 10
98.24779819236562
 20
8.687815322677687
 30
0.0
 11
99.0353046761575
 21
8.687815322677687
 31
0.0
1001
ACAD
1000
ASC_BOUNDS
1002
{
1070
    16
1005
131B86
1002
}
  0
LINE
  5
1306B1
330
131D0B
100
AcDbEntity
  8
ROGO
100
AcDbLine
 10
101.8963324367925
 20
4.904872625247259
 30
0.0
 11
101.8963324367925
 21
5.70487262524726
 31
0.0
1001
ACAD
1000
ASC_BOUNDS
1002
{
1070
    16
1005
131B86
1002
}
  0
LINE
  5
1306B2
330
131D0B
100
AcDbEntity
  8
ROGO
100
AcDbLine
 10
100.751090604331
 20
6.943622625247259
 30
0.0
 11
101.727340604331
 21
6.943622625247259
 31
0.0
1001
ACAD
1000
ASC_BOUNDS
1002
{
1070
    16
1005
131B86
1002
}
  0
LINE
  5
1306B3
330
131D0B
100
AcDbEntity
  8
ROGO
100
AcDbLine
 10
100.751090604331
 20
6.943622625247259
 30
0.0
 11
100.751090604331
 21
4.228852064397353
 31
0.0
1001
ACAD
1000
ASC_BOUNDS
1002
{
1070
    16
1005
131B86
1002
}
  0
LINE
  5
1306B4
330
131D0B
100
AcDbEntity
  8
ROGO
100
AcDbLine
 10
101.727340604331
 20
7.697685125247259
 30
0.0
 11
101.727340604331
 21
6.943622625247259
 31
0.0
1001
ACAD
1000
ASC_BOUNDS
1002
{
1070
    16
1005
131B86
1002
}
  0
LINE
  5
1306B5
330
131D0B
100
AcDbEntity
  8
ROGO
100
AcDbLine
 10
137.1569496689686
 20
6.904872625247259
 30
0.0
 11
133.9792037204667
 21
6.904872625247259
 31
0.0
1001
ACAD
1000
ASC_BOUNDS
1002
{
1070
    16
1005
131B86
1002
}
  0
LINE
  5
1306B6
330
131D0B
100
AcDbEntity
  8
ROGO
100
AcDbLine
 10
133.9792037204667
 20
7.50487262524726
 30
0.0
 11
137.0808055399448
 21
7.50487262524726
 31
0.0
1001
ACAD
1000
ASC_BOUNDS
1002
{
1070
    16
1005
131B86
1002
}
  0
LINE
  5
1306B7
330
131D0B
100
AcDbEntity
  8
ROGO
100
AcDbLine
 10
121.2415742692542
 20
2.504872625247259
 30
0.0
 11
116.4415742692542
 21
2.504872625247259
 31
0.0
1001
ACAD
1000
ASC_BOUNDS
1002
{
1070
    16
1005
131B86
1002
}
  0
LINE
  5
1306B8
330
131D0B
100
AcDbEntity
  8
ROGO
100
AcDbLine
 10
121.2415742692542
 20
3.304872625247259
 30
0.0
 11
119.2415742692542
 21
3.304872625247259
 31
0.0
1001
ACAD
1000
ASC_BOUNDS
1002
{
1070
    16
1005
131B86
1002
}
  0
LINE
  5
1306B9
330
131D0B
100
AcDbEntity
  8
ROGO
100
AcDbLine
 10
121.0415742692542
 20
6.904872625247259
 30
0.0
 11
119.2415742692542
 21
6.904872625247259
 31
0.0
1001
ACAD
1000
ASC_BOUNDS
1002
{
1070
    16
1005
131B86
1002
}
  0
LINE
  5
1306BA
330
131D0B
100
AcDbEntity
  8
ROGO
100
AcDbLine
 10
121.0415742692542
 20
7.70487262524726
 30
0.0
 11
116.8415742692542
 21
7.70487262524726
 31
0.0
1001
ACAD
1000
ASC_BOUNDS
1002
{
1070
    16
1005
131B86
1002
}
  0
LINE
  5
1306BB
330
131D0B
100
AcDbEntity
  8
ROGO
100
AcDbLine
 10
109.6940905280229
 20
2.50487262524726
 30
0.0
 11
106.5434782230819
 21
2.50487262524726
 31
0.0
1001
ACAD
1000
ASC_BOUNDS
1002
{
1070
    16
1005
131B86
1002
}
  0
LINE
  5
1306BC
330
131D0B
100
AcDbEntity
  8
ROGO
100
AcDbLine
 10
109.6159782230819
 20
3.304872625247259
 30
0.0
 11
106.5434782230819
 21
3.304872625247259
 31
0.0
1001
ACAD
1000
ASC_BOUNDS
1002
{
1070
    16
1005
131B86
1002
}
  0
LINE
  5
1306BD
330
131D0B
100
AcDbEntity
  8
ROGO
100
AcDbLine
 10
106.5434782230819
 20
5.304872625247261
 30
0.0
 11
108.9434782230819
 21
5.304872625247261
 31
0.0
1001
ACAD
1000
ASC_BOUNDS
1002
{
1070
    16
1005
131B86
1002
}
  0
LINE
  5
1306BE
330
131D0B
100
AcDbEntity
  8
ROGO
100
AcDbLine
 10
108.9434782230819
 20
6.104872625247258
 30
0.0
 11
106.5434782230819
 21
6.104872625247262
 31
0.0
1001
ACAD
1000
ASC_BOUNDS
1002
{
1070
    16
1005
131B86
1002
}
  0
LINE
  5
1306BF
330
131D0B
100
AcDbEntity
  8
ROGO
100
AcDbLine
 10
106.5434782230819
 20
7.697685125247259
 30
0.0
 11
108.9434782230819
 21
7.697685125247259
 31
0.0
1001
ACAD
1000
ASC_BOUNDS
1002
{
1070
    16
1005
131B86
1002
}
  0
LINE
  5
1306C0
330
131D0B
100
AcDbEntity
  8
ROGO
100
AcDbLine
 10
108.9434782230819
 20
6.904872625247259
 30
0.0
 11
106.5434782230819
 21
6.904872625247259
 31
0.0
1001
ACAD
1000
ASC_BOUNDS
1002
{
1070
    16
1005
131B86
1002
}
  0
LINE
  5
1306C1
330
131D0B
100
AcDbEntity
  8
ROGO
100
AcDbLine
 10
106.5434782230819
 20
3.304872625247259
 30
0.0
 11
106.5434782230819
 21
2.50487262524726
 31
0.0
1001
ACAD
1000
ASC_BOUNDS
1002
{
1070
    16
1005
131B86
1002
}
  0
LINE
  5
1306C2
330
131D0B
100
AcDbEntity
  8
ROGO
100
AcDbLine
 10
105.4963324367926
 20
4.904872625247259
 30
0.0
 11
105.4963324367926
 21
5.70487262524726
 31
0.0
1001
ACAD
1000
ASC_BOUNDS
1002
{
1070
    16
1005
131B86
1002
}
  0
LINE
  5
1306C3
330
131D0B
100
AcDbEntity
  8
ROGO
100
AcDbLine
 10
106.5434782230819
 20
6.104872625247258
 30
0.0
 11
106.5434782230819
 21
5.304872625247261
 31
0.0
1001
ACAD
1000
ASC_BOUNDS
1002
{
1070
    16
1005
131B86
1002
}
  0
LINE
  5
1306C4
330
131D0B
100
AcDbEntity
  8
ROGO
100
AcDbLine
 10
106.5434782230819
 20
7.697685125247259
 30
0.0
 11
106.5434782230819
 21
6.904872625247259
 31
0.0
1001
ACAD
1000
ASC_BOUNDS
1002
{
1070
    16
1005
131B86
1002
}
  0
ARC
  5
1306C5
330
131D0B
100
AcDbEntity
  8
ROGO
100
AcDbCircle
 10
109.6128576881032
 20
4.83589279863037
 30
0.0
 40
1.53102335352685
100
AcDbArc
 50
270.1167804576508
 51
1.314349835080955
1001
ACAD
1000
ASC_BOUNDS
1002
{
1070
    16
1005
131B86
1002
}
  0
ARC
  5
1306C6
330
131D0B
100
AcDbEntity
  8
ROGO
100
AcDbCircle
 10
109.6263086057863
 20
4.841524867743183
 30
0.0
 40
2.336675077790675
100
AcDbArc
 50
269.7466959512527
 51
352.5916900966923
1001
ACAD
1000
ASC_BOUNDS
1002
{
1070
    16
1005
131B86
1002
}
  0
LINE
  5
1306C7
330
131D0B
100
AcDbEntity
  8
ROGO
100
AcDbLine
 10
108.9434782230819
 20
6.104872625247258
 30
0.0
 11
108.9434782230819
 21
5.304872625247261
 31
0.0
1001
ACAD
1000
ASC_BOUNDS
1002
{
1070
    16
1005
131B86
1002
}
  0
LINE
  5
1306C8
330
131D0B
100
AcDbEntity
  8
ROGO
100
AcDbLine
 10
108.9434782230819
 20
7.697685125247259
 30
0.0
 11
108.9434782230819
 21
6.904872625247259
 31
0.0
1001
ACAD
1000
ASC_BOUNDS
1002
{
1070
    16
1005
131B86
1002
}
  0
LINE
  5
1306C9
330
131D0B
100
AcDbEntity
  8
ROGO
100
AcDbLine
 10
111.943478223082
 20
4.540235332826673
 30
0.0
 11
111.943478223082
 21
6.104872625247262
 31
0.0
1001
ACAD
1000
ASC_BOUNDS
1002
{
1070
    16
1005
131B86
1002
}
  0
LINE
  5
1306CA
330
131D0B
100
AcDbEntity
  8
ROGO
100
AcDbLine
 10
111.1434782230819
 20
4.800774613229739
 30
0.0
 11
111.1434782230819
 21
6.104872625247262
 31
0.0
1001
ACAD
1000
ASC_BOUNDS
1002
{
1070
    16
1005
131B86
1002
}
  0
LINE
  5
1306CB
330
131D0B
100
AcDbEntity
  8
ROGO
100
AcDbLine
 10
111.943478223082
 20
6.104872625247262
 30
0.0
 11
111.1434782230819
 21
6.104872625247262
 31
0.0
1001
ACAD
1000
ASC_BOUNDS
1002
{
1070
    16
1005
131B86
1002
}
  0
LINE
  5
1306CC
330
131D0B
100
AcDbEntity
  8
ROGO
100
AcDbLine
 10
111.9299903945414
 20
7.499247625247258
 30
0.0
 11
111.9299903945414
 21
6.507060125247258
 31
0.0
1001
ACAD
1000
ASC_BOUNDS
1002
{
1070
    16
1005
131B86
1002
}
  0
LINE
  5
1306CD
330
131D0B
100
AcDbEntity
  8
ROGO
100
AcDbLine
 10
112.4299903945414
 20
7.499247625247258
 30
0.0
 11
112.4299903945414
 21
6.507060125247258
 31
0.0
1001
ACAD
1000
ASC_BOUNDS
1002
{
1070
    16
1005
131B86
1002
}
  0
LINE
  5
1306CE
330
131D0B
100
AcDbEntity
  8
ROGO
100
AcDbLine
 10
111.9299903945414
 20
6.507060125247258
 30
0.0
 11
112.4299903945414
 21
6.507060125247258
 31
0.0
1001
ACAD
1000
ASC_BOUNDS
1002
{
1070
    16
1005
131B86
1002
}
  0
LINE
  5
1306CF
330
131D0B
100
AcDbEntity
  8
ROGO
100
AcDbLine
 10
111.9299903945414
 20
7.499247625247258
 30
0.0
 11
112.4299903945414
 21
7.499247625247258
 31
0.0
1001
ACAD
1000
ASC_BOUNDS
1002
{
1070
    16
1005
131B86
1002
}
  0
LINE
  5
1306D0
330
131D0B
100
AcDbEntity
  8
ROGO
100
AcDbLine
 10
110.7763706337949
 20
7.499247625247258
 30
0.0
 11
111.276370633795
 21
7.499247625247258
 31
0.0
1001
ACAD
1000
ASC_BOUNDS
1002
{
1070
    16
1005
131B86
1002
}
  0
LINE
  5
1306D1
330
131D0B
100
AcDbEntity
  8
ROGO
100
AcDbLine
 10
110.7763706337949
 20
6.507060125247258
 30
0.0
 11
111.2763706337949
 21
6.507060125247258
 31
0.0
1001
ACAD
1000
ASC_BOUNDS
1002
{
1070
    16
1005
131B86
1002
}
  0
LINE
  5
1306D2
330
131D0B
100
AcDbEntity
  8
ROGO
100
AcDbLine
 10
111.2763706337949
 20
7.499247625247258
 30
0.0
 11
111.2763706337949
 21
6.507060125247258
 31
0.0
1001
ACAD
1000
ASC_BOUNDS
1002
{
1070
    16
1005
131B86
1002
}
  0
LINE
  5
1306D3
330
131D0B
100
AcDbEntity
  8
ROGO
100
AcDbLine
 10
110.7763706337949
 20
7.499247625247258
 30
0.0
 11
110.7763706337949
 21
6.507060125247258
 31
0.0
1001
ACAD
1000
ASC_BOUNDS
1002
{
1070
    16
1005
131B86
1002
}
  0
LINE
  5
1306D4
330
131D0B
100
AcDbEntity
  8
ROGO
100
AcDbLine
 10
118.4415742692541
 20
3.304872625247259
 30
0.0
 11
116.4415742692542
 21
3.304872625247259
 31
0.0
1001
ACAD
1000
ASC_BOUNDS
1002
{
1070
    16
1005
131B86
1002
}
  0
LINE
  5
1306D5
330
131D0B
100
AcDbEntity
  8
ROGO
100
AcDbLine
 10
116.4415742692542
 20
2.504872625247259
 30
0.0
 11
116.4415742692542
 21
3.304872625247259
 31
0.0
1001
ACAD
1000
ASC_BOUNDS
1002
{
1070
    16
1005
131B86
1002
}
  0
LINE
  5
1306D6
330
131D0B
100
AcDbEntity
  8
ROGO
100
AcDbLine
 10
116.4415742692541
 20
5.70487262524726
 30
0.0
 11
112.8415742692541
 21
5.70487262524726
 31
0.0
1001
ACAD
1000
ASC_BOUNDS
1002
{
1070
    16
1005
131B86
1002
}
  0
LINE
  5
1306D7
330
131D0B
100
AcDbEntity
  8
ROGO
100
AcDbLine
 10
116.4415742692541
 20
4.904872625247259
 30
0.0
 11
112.8415742692541
 21
4.904872625247259
 31
0.0
1001
ACAD
1000
ASC_BOUNDS
1002
{
1070
    16
1005
131B86
1002
}
  0
LINE
  5
1306D8
330
131D0B
100
AcDbEntity
  8
ROGO
100
AcDbLine
 10
112.8415742692541
 20
5.70487262524726
 30
0.0
 11
112.8415742692541
 21
4.904872625247259
 31
0.0
1001
ACAD
1000
ASC_BOUNDS
1002
{
1070
    16
1005
131B86
1002
}
  0
LINE
  5
1306D9
330
131D0B
100
AcDbEntity
  8
ROGO
100
AcDbLine
 10
116.4415742692541
 20
5.70487262524726
 30
0.0
 11
116.4415742692541
 21
4.904872625247259
 31
0.0
1001
ACAD
1000
ASC_BOUNDS
1002
{
1070
    16
1005
131B86
1002
}
  0
LINE
  5
1306DA
330
131D0B
100
AcDbEntity
  8
ROGO
100
AcDbLine
 10
118.4415742692541
 20
6.904872625247259
 30
0.0
 11
118.4415742692541
 21
3.304872625247259
 31
0.0
1001
ACAD
1000
ASC_BOUNDS
1002
{
1070
    16
1005
131B86
1002
}
  0
LINE
  5
1306DB
330
131D0B
100
AcDbEntity
  8
ROGO
100
AcDbLine
 10
119.2415742692542
 20
6.904872625247259
 30
0.0
 11
119.2415742692542
 21
3.304872625247259
 31
0.0
1001
ACAD
1000
ASC_BOUNDS
1002
{
1070
    16
1005
131B86
1002
}
  0
LINE
  5
1306DC
330
131D0B
100
AcDbEntity
  8
ROGO
100
AcDbLine
 10
118.4415742692541
 20
6.904872625247259
 30
0.0
 11
116.8415742692542
 21
6.904872625247259
 31
0.0
1001
ACAD
1000
ASC_BOUNDS
1002
{
1070
    16
1005
131B86
1002
}
  0
LINE
  5
1306DD
330
131D0B
100
AcDbEntity
  8
ROGO
100
AcDbLine
 10
116.8415742692542
 20
6.904872625247259
 30
0.0
 11
116.8415742692542
 21
7.70487262524726
 31
0.0
1001
ACAD
1000
ASC_BOUNDS
1002
{
1070
    16
1005
131B86
1002
}
  0
LINE
  5
1306DE
330
131D0B
100
AcDbEntity
  8
ROGO
100
AcDbLine
 10
129.3084856133763
 20
2.50487262524726
 30
0.0
 11
128.5084856133763
 21
2.50487262524726
 31
0.0
1001
ACAD
1000
ASC_BOUNDS
1002
{
1070
    16
1005
131B86
1002
}
  0
LINE
  5
1306DF
330
131D0B
100
AcDbEntity
  8
ROGO
100
AcDbLine
 10
129.3084856133763
 20
8.292997625247258
 30
0.0
 11
128.5084856133763
 21
8.292997625247258
 31
0.0
1001
ACAD
1000
ASC_BOUNDS
1002
{
1070
    16
1005
131B86
1002
}
  0
LINE
  5
1306E0
330
131D0B
100
AcDbEntity
  8
ROGO
100
AcDbLine
 10
125.6887301182925
 20
6.904872625247259
 30
0.0
 11
122.0887189108562
 21
6.904872625247259
 31
0.0
1001
ACAD
1000
ASC_BOUNDS
1002
{
1070
    16
1005
131B86
1002
}
  0
ARC
  5
1306E1
330
131D0B
100
AcDbEntity
  8
ROGO
100
AcDbCircle
 10
122.0329731919806
 20
6.962349620441242
 30
0.0
 40
4.457143034771188
100
AcDbArc
 50
270.7166199669272
 51
316.094370118352
1001
ACAD
1000
ASC_BOUNDS
1002
{
1070
    16
1005
131B86
1002
}
  0
ARC
  5
1306E2
330
131D0B
100
AcDbEntity
  8
ROGO
100
AcDbCircle
 10
122.0323388299421
 20
6.948590589261266
 30
0.0
 40
3.656652637850988
100
AcDbArc
 50
270.8834497038948
 51
359.3149706158509
1001
ACAD
1000
ASC_BOUNDS
1002
{
1070
    16
1005
131B86
1002
}
  0
LINE
  5
1306E3
330
131D0B
100
AcDbEntity
  8
ROGO
100
AcDbLine
 10
126.4887189108561
 20
7.70487262524726
 30
0.0
 11
122.0887189108562
 21
7.70487262524726
 31
0.0
1001
ACAD
1000
ASC_BOUNDS
1002
{
1070
    16
1005
131B86
1002
}
  0
LINE
  5
1306E4
330
131D0B
100
AcDbEntity
  8
ROGO
100
AcDbLine
 10
122.1662189108562
 20
2.505555206601137
 30
0.0
 11
122.0887189108562
 21
2.505555206601137
 31
0.0
  0
LINE
  5
1306E5
330
131D0B
100
AcDbEntity
  8
ROGO
100
AcDbLine
 10
122.0887189108562
 20
3.29237262524726
 30
0.0
 11
122.0887189108562
 21
2.505555206601137
 31
0.0
1001
ACAD
1000
ASC_BOUNDS
1002
{
1070
    16
1005
131B86
1002
}
  0
LINE
  5
1306E6
330
131D0B
100
AcDbEntity
  8
ROGO
100
AcDbLine
 10
121.2415742692542
 20
3.304872625247259
 30
0.0
 11
121.2415742692542
 21
2.504872625247259
 31
0.0
1001
ACAD
1000
ASC_BOUNDS
1002
{
1070
    16
1005
131B86
1002
}
  0
LINE
  5
1306E7
330
131D0B
100
AcDbEntity
  8
ROGO
100
AcDbLine
 10
122.0887189108562
 20
7.70487262524726
 30
0.0
 11
122.0887189108562
 21
6.904872625247259
 31
0.0
1001
ACAD
1000
ASC_BOUNDS
1002
{
1070
    16
1005
131B86
1002
}
  0
LINE
  5
1306E8
330
131D0B
100
AcDbEntity
  8
ROGO
100
AcDbLine
 10
121.0415742692542
 20
7.70487262524726
 30
0.0
 11
121.0415742692542
 21
6.904872625247259
 31
0.0
1001
ACAD
1000
ASC_BOUNDS
1002
{
1070
    16
1005
131B86
1002
}
  0
LINE
  5
1306E9
330
131D0B
100
AcDbEntity
  8
ROGO
100
AcDbLine
 10
128.5084856133763
 20
4.504872625247086
 30
0.0
 11
128.5084856133763
 21
2.50487262524726
 31
0.0
1001
ACAD
1000
ASC_BOUNDS
1002
{
1070
    16
1005
131B86
1002
}
  0
LINE
  5
1306EA
330
131D0B
100
AcDbEntity
  8
ROGO
100
AcDbLine
 10
128.5084856133763
 20
4.504872625247093
 30
0.0
 11
127.9084856133763
 21
2.704872625247244
 31
0.0
1001
ACAD
1000
ASC_BOUNDS
1002
{
1070
    16
1005
131B86
1002
}
  0
LINE
  5
1306EB
330
131D0B
100
AcDbEntity
  8
ROGO
100
AcDbLine
 10
127.9084856133763
 20
3.904872625247422
 30
0.0
 11
127.9084856133763
 21
2.704872625247215
 31
0.0
1001
ACAD
1000
ASC_BOUNDS
1002
{
1070
    16
1005
131B86
1002
}
  0
LINE
  5
1306EC
330
131D0B
100
AcDbEntity
  8
ROGO
100
AcDbLine
 10
125.7844731118712
 20
4.555614823362207
 30
0.0
 11
126.8848234068706
 21
2.512107132649125
 31
0.0
1001
ACAD
1000
ASC_BOUNDS
1002
{
1070
    16
1005
131B86
1002
}
  0
LINE
  5
1306ED
330
131D0B
100
AcDbEntity
  8
ROGO
100
AcDbLine
 10
125.2442688637042
 20
3.871442934502749
 30
0.0
 11
125.9762189108562
 21
2.512107132649125
 31
0.0
1001
ACAD
1000
ASC_BOUNDS
1002
{
1070
    16
1005
131B86
1002
}
  0
LINE
  5
1306EE
330
131D0B
100
AcDbEntity
  8
ROGO
100
AcDbLine
 10
125.9762189108562
 20
2.512107132649125
 30
0.0
 11
126.8848234068706
 21
2.512107132649125
 31
0.0
1001
ACAD
1000
ASC_BOUNDS
1002
{
1070
    16
1005
131B86
1002
}
  0
ARC
  5
1306EF
330
131D0B
100
AcDbEntity
  8
ROGO
100
AcDbCircle
 10
122.0329731919806
 20
6.962349620441242
 30
0.0
 40
4.457143034771188
100
AcDbArc
 50
327.3182311966854
 51
1.434722770212941
1001
ACAD
1000
ASC_BOUNDS
1002
{
1070
    16
1005
131B86
1002
}
  0
LINE
  5
1306F0
330
131D0B
100
AcDbEntity
  8
ROGO
100
AcDbLine
 10
126.4887189108561
 20
6.850751586714535
 30
0.0
 11
126.4887189108561
 21
7.70487262524726
 31
0.0
1001
ACAD
1000
ASC_BOUNDS
1002
{
1070
    16
1005
131B86
1002
}
  0
LINE
  5
1306F1
330
131D0B
100
AcDbEntity
  8
ROGO
100
AcDbLine
 10
128.5084856133763
 20
6.904872625247259
 30
0.0
 11
128.5084856133763
 21
5.90487262524728
 31
0.0
1001
ACAD
1000
ASC_BOUNDS
1002
{
1070
    16
1005
131B86
1002
}
  0
LINE
  5
1306F2
330
131D0B
100
AcDbEntity
  8
ROGO
100
AcDbLine
 10
128.5084856133763
 20
6.904872625247259
 30
0.0
 11
127.9084856133763
 21
6.904872625247259
 31
0.0
1001
ACAD
1000
ASC_BOUNDS
1002
{
1070
    16
1005
131B86
1002
}
  0
LINE
  5
1306F3
330
131D0B
100
AcDbEntity
  8
ROGO
100
AcDbLine
 10
127.9084856133763
 20
3.904872625247303
 30
0.0
 11
128.5084856133763
 21
5.904872625247213
 31
0.0
1001
ACAD
1000
ASC_BOUNDS
1002
{
1070
    16
1005
131B86
1002
}
  0
LINE
  5
1306F4
330
131D0B
100
AcDbEntity
  8
ROGO
100
AcDbLine
 10
128.5084856133763
 20
8.292997625247258
 30
0.0
 11
128.5084856133763
 21
7.499247625247258
 31
0.0
1001
ACAD
1000
ASC_BOUNDS
1002
{
1070
    16
1005
131B86
1002
}
  0
LINE
  5
1306F5
330
131D0B
100
AcDbEntity
  8
ROGO
100
AcDbLine
 10
127.9084856133763
 20
7.499247625247258
 30
0.0
 11
128.5084856133763
 21
7.499247625247258
 31
0.0
1001
ACAD
1000
ASC_BOUNDS
1002
{
1070
    16
1005
131B86
1002
}
  0
LINE
  5
1306F6
330
131D0B
100
AcDbEntity
  8
ROGO
100
AcDbLine
 10
127.9084856133763
 20
7.499247625247258
 30
0.0
 11
127.9084856133763
 21
6.904872625247259
 31
0.0
1001
ACAD
1000
ASC_BOUNDS
1002
{
1070
    16
1005
131B86
1002
}
  0
LINE
  5
1306F7
330
131D0B
100
AcDbEntity
  8
ROGO
100
AcDbLine
 10
132.1084856133762
 20
6.904872625247259
 30
0.0
 11
132.9084856133763
 21
6.904872625247259
 31
0.0
1001
ACAD
1000
ASC_BOUNDS
1002
{
1070
    16
1005
131B86
1002
}
  0
LINE
  5
1306F8
330
131D0B
100
AcDbEntity
  8
ROGO
100
AcDbLine
 10
132.1084856133762
 20
5.70487262524726
 30
0.0
 11
132.9084856133763
 21
5.70487262524726
 31
0.0
1001
ACAD
1000
ASC_BOUNDS
1002
{
1070
    16
1005
131B86
1002
}
  0
LINE
  5
1306F9
330
131D0B
100
AcDbEntity
  8
ROGO
100
AcDbLine
 10
132.1084856133762
 20
3.704872625247338
 30
0.0
 11
132.9084856133763
 21
2.504872625247207
 31
0.0
1001
ACAD
1000
ASC_BOUNDS
1002
{
1070
    16
1005
131B86
1002
}
  0
LINE
  5
1306FA
330
131D0B
100
AcDbEntity
  8
ROGO
100
AcDbLine
 10
132.1084856133762
 20
4.904872625247401
 30
0.0
 11
132.9084856133763
 21
3.70487262524721
 31
0.0
1001
ACAD
1000
ASC_BOUNDS
1002
{
1070
    16
1005
131B86
1002
}
  0
LINE
  5
1306FB
330
131D0B
100
AcDbEntity
  8
ROGO
100
AcDbLine
 10
132.9084856133763
 20
5.104872625247262
 30
0.0
 11
132.1084856133762
 21
5.104872625247262
 31
0.0
1001
ACAD
1000
ASC_BOUNDS
1002
{
1070
    16
1005
131B86
1002
}
  0
LINE
  5
1306FC
330
131D0B
100
AcDbEntity
  8
ROGO
100
AcDbLine
 10
132.9084856133763
 20
7.499247625247258
 30
0.0
 11
132.1084856133762
 21
7.499247625247258
 31
0.0
1001
ACAD
1000
ASC_BOUNDS
1002
{
1070
    16
1005
131B86
1002
}
  0
LINE
  5
1306FD
330
131D0B
100
AcDbEntity
  8
ROGO
100
AcDbLine
 10
129.3084856133763
 20
5.304872625247393
 30
0.0
 11
129.3084856133763
 21
2.50487262524726
 31
0.0
1001
ACAD
1000
ASC_BOUNDS
1002
{
1070
    16
1005
131B86
1002
}
  0
LINE
  5
1306FE
330
131D0B
100
AcDbEntity
  8
ROGO
100
AcDbLine
 10
132.1084856133762
 20
3.704872625247352
 30
0.0
 11
132.1084856133762
 21
2.50487262524726
 31
0.0
1001
ACAD
1000
ASC_BOUNDS
1002
{
1070
    16
1005
131B86
1002
}
  0
LINE
  5
1306FF
330
131D0B
100
AcDbEntity
  8
ROGO
100
AcDbLine
 10
131.3084856133762
 20
3.704872625247228
 30
0.0
 11
131.3084856133762
 21
2.50487262524726
 31
0.0
1001
ACAD
1000
ASC_BOUNDS
1002
{
1070
    16
1005
131B86
1002
}
  0
LINE
  5
130700
330
131D0B
100
AcDbEntity
  8
ROGO
100
AcDbLine
 10
131.3084856133762
 20
3.704872625247226
 30
0.0
 11
130.3084856133763
 21
2.504872625247264
 31
0.0
1001
ACAD
1000
ASC_BOUNDS
1002
{
1070
    16
1005
131B86
1002
}
  0
LINE
  5
130701
330
131D0B
100
AcDbEntity
  8
ROGO
100
AcDbLine
 10
130.3084856133763
 20
3.504872625247223
 30
0.0
 11
130.3084856133763
 21
2.504872625247267
 31
0.0
1001
ACAD
1000
ASC_BOUNDS
1002
{
1070
    16
1005
131B86
1002
}
  0
LINE
  5
130702
330
131D0B
100
AcDbEntity
  8
ROGO
100
AcDbLine
 10
132.1084856133762
 20
2.50487262524726
 30
0.0
 11
131.3084856133762
 21
2.50487262524726
 31
0.0
1001
ACAD
1000
ASC_BOUNDS
1002
{
1070
    16
1005
131B86
1002
}
  0
LINE
  5
130703
330
131D0B
100
AcDbEntity
  8
ROGO
100
AcDbLine
 10
131.3084856133762
 20
5.104872625247262
 30
0.0
 11
130.3084856133764
 21
5.104872625247262
 31
0.0
1001
ACAD
1000
ASC_BOUNDS
1002
{
1070
    16
1005
131B86
1002
}
  0
LINE
  5
130704
330
131D0B
100
AcDbEntity
  8
ROGO
100
AcDbLine
 10
130.8284856133763
 20
6.904872625247259
 30
0.0
 11
130.508596455227
 21
6.105149729873923
 31
0.0
1001
ACAD
1000
ASC_BOUNDS
1002
{
1070
    16
1005
131B86
1002
}
  0
LINE
  5
130705
330
131D0B
100
AcDbEntity
  8
ROGO
100
AcDbLine
 10
131.3084856133762
 20
4.904872625247184
 30
0.0
 11
130.3084856133763
 21
3.504872625247241
 31
0.0
1001
ACAD
1000
ASC_BOUNDS
1002
{
1070
    16
1005
131B86
1002
}
  0
LINE
  5
130706
330
131D0B
100
AcDbEntity
  8
ROGO
100
AcDbLine
 10
130.3084856133764
 20
5.70487262524726
 30
0.0
 11
131.3084856133762
 21
5.70487262524726
 31
0.0
1001
ACAD
1000
ASC_BOUNDS
1002
{
1070
    16
1005
131B86
1002
}
  0
LINE
  5
130707
330
131D0B
100
AcDbEntity
  8
ROGO
100
AcDbLine
 10
130.3084856133764
 20
8.304872625247261
 30
0.0
 11
130.9084856133763
 21
8.304872625247261
 31
0.0
1001
ACAD
1000
ASC_BOUNDS
1002
{
1070
    16
1005
131B86
1002
}
  0
LINE
  5
130708
330
131D0B
100
AcDbEntity
  8
ROGO
100
AcDbLine
 10
129.3084856133763
 20
7.499247625247258
 30
0.0
 11
129.7084856133763
 21
7.499247625247258
 31
0.0
1001
ACAD
1000
ASC_BOUNDS
1002
{
1070
    16
1005
131B86
1002
}
  0
LINE
  5
130709
330
131D0B
100
AcDbEntity
  8
ROGO
100
AcDbLine
 10
130.3084856133764
 20
6.304872625247233
 30
0.0
 11
130.5277612745672
 21
6.086022064563339
 31
0.0
1001
ACAD
1000
ASC_BOUNDS
1002
{
1070
    16
1005
131B86
1002
}
  0
LINE
  5
13070A
330
131D0B
100
AcDbEntity
  8
ROGO
100
AcDbLine
 10
130.3084856133764
 20
8.304872625247261
 30
0.0
 11
130.3084856133764
 21
6.304872625247243
 31
0.0
1001
ACAD
1000
ASC_BOUNDS
1002
{
1070
    16
1005
131B86
1002
}
  0
LINE
  5
13070B
330
131D0B
100
AcDbEntity
  8
ROGO
100
AcDbLine
 10
130.3084856133764
 20
5.70487262524726
 30
0.0
 11
130.3084856133764
 21
5.104872625247262
 31
0.0
1001
ACAD
1000
ASC_BOUNDS
1002
{
1070
    16
1005
131B86
1002
}
  0
LINE
  5
13070C
330
131D0B
100
AcDbEntity
  8
ROGO
100
AcDbLine
 10
129.3084856133763
 20
6.904872625247259
 30
0.0
 11
129.7084856133763
 21
5.30487262524752
 31
0.0
1001
ACAD
1000
ASC_BOUNDS
1002
{
1070
    16
1005
131B86
1002
}
  0
LINE
  5
13070D
330
131D0B
100
AcDbEntity
  8
ROGO
100
AcDbLine
 10
129.7084856133763
 20
4.104872625247459
 30
0.0
 11
129.3084856133763
 21
5.30487262524735
 31
0.0
1001
ACAD
1000
ASC_BOUNDS
1002
{
1070
    16
1005
131B86
1002
}
  0
LINE
  5
13070E
330
131D0B
100
AcDbEntity
  8
ROGO
100
AcDbLine
 10
129.7084856133763
 20
5.304872625247542
 30
0.0
 11
129.7084856133763
 21
4.104872625247477
 31
0.0
1001
ACAD
1000
ASC_BOUNDS
1002
{
1070
    16
1005
131B86
1002
}
  0
LINE
  5
13070F
330
131D0B
100
AcDbEntity
  8
ROGO
100
AcDbLine
 10
129.3084856133763
 20
8.292997625247261
 30
0.0
 11
129.3084856133763
 21
7.499247625247258
 31
0.0
1001
ACAD
1000
ASC_BOUNDS
1002
{
1070
    16
1005
131B86
1002
}
  0
LINE
  5
130710
330
131D0B
100
AcDbEntity
  8
ROGO
100
AcDbLine
 10
129.7084856133763
 20
7.499247625247258
 30
0.0
 11
129.7084856133763
 21
6.904872625247259
 31
0.0
1001
ACAD
1000
ASC_BOUNDS
1002
{
1070
    16
1005
131B86
1002
}
  0
LINE
  5
130711
330
131D0B
100
AcDbEntity
  8
ROGO
100
AcDbLine
 10
129.7084856133763
 20
6.904872625247259
 30
0.0
 11
129.3084856133763
 21
6.904872625247259
 31
0.0
1001
ACAD
1000
ASC_BOUNDS
1002
{
1070
    16
1005
131B86
1002
}
  0
LINE
  5
130712
330
131D0B
100
AcDbEntity
  8
ROGO
100
AcDbLine
 10
132.1084856133762
 20
6.904872625247259
 30
0.0
 11
132.1084856133762
 21
5.70487262524726
 31
0.0
1001
ACAD
1000
ASC_BOUNDS
1002
{
1070
    16
1005
131B86
1002
}
  0
LINE
  5
130713
330
131D0B
100
AcDbEntity
  8
ROGO
100
AcDbLine
 10
131.3084856133763
 20
6.904872625247259
 30
0.0
 11
131.3084856133762
 21
5.70487262524726
 31
0.0
1001
ACAD
1000
ASC_BOUNDS
1002
{
1070
    16
1005
131B86
1002
}
  0
LINE
  5
130714
330
131D0B
100
AcDbEntity
  8
ROGO
100
AcDbLine
 10
131.3084856133762
 20
7.499247625247258
 30
0.0
 11
130.9084856133763
 21
7.499247625247258
 31
0.0
1001
ACAD
1000
ASC_BOUNDS
1002
{
1070
    16
1005
131B86
1002
}
  0
LINE
  5
130715
330
131D0B
100
AcDbEntity
  8
ROGO
100
AcDbLine
 10
131.3084856133762
 20
5.104872625247262
 30
0.0
 11
131.3084856133762
 21
4.904872625247188
 31
0.0
1001
ACAD
1000
ASC_BOUNDS
1002
{
1070
    16
1005
131B86
1002
}
  0
LINE
  5
130716
330
131D0B
100
AcDbEntity
  8
ROGO
100
AcDbLine
 10
132.1084856133762
 20
5.104872625247262
 30
0.0
 11
132.1084856133762
 21
4.904872625247429
 31
0.0
1001
ACAD
1000
ASC_BOUNDS
1002
{
1070
    16
1005
131B86
1002
}
  0
LINE
  5
130717
330
131D0B
100
AcDbEntity
  8
ROGO
100
AcDbLine
 10
131.3084856133762
 20
8.304872625247261
 30
0.0
 11
132.1084856133762
 21
8.304872625247261
 31
0.0
1001
ACAD
1000
ASC_BOUNDS
1002
{
1070
    16
1005
131B86
1002
}
  0
LINE
  5
130718
330
131D0B
100
AcDbEntity
  8
ROGO
100
AcDbLine
 10
130.9084856133763
 20
8.304872625247261
 30
0.0
 11
130.9084856133763
 21
7.499247625247258
 31
0.0
1001
ACAD
1000
ASC_BOUNDS
1002
{
1070
    16
1005
131B86
1002
}
  0
LINE
  5
130719
330
131D0B
100
AcDbEntity
  8
ROGO
100
AcDbLine
 10
130.8284856133763
 20
6.904872625247259
 30
0.0
 11
131.3084856133762
 21
6.904872625247259
 31
0.0
1001
ACAD
1000
ASC_BOUNDS
1002
{
1070
    16
1005
131B86
1002
}
  0
LINE
  5
13071A
330
131D0B
100
AcDbEntity
  8
ROGO
100
AcDbLine
 10
131.3084856133762
 20
8.304872625247261
 30
0.0
 11
131.3084856133762
 21
7.499247625247258
 31
0.0
1001
ACAD
1000
ASC_BOUNDS
1002
{
1070
    16
1005
131B86
1002
}
  0
LINE
  5
13071B
330
131D0B
100
AcDbEntity
  8
ROGO
100
AcDbLine
 10
132.1084856133762
 20
8.304872625247261
 30
0.0
 11
132.1084856133762
 21
7.499247625247258
 31
0.0
1001
ACAD
1000
ASC_BOUNDS
1002
{
1070
    16
1005
131B86
1002
}
  0
LINE
  5
13071C
330
131D0B
100
AcDbEntity
  8
ROGO
100
AcDbLine
 10
136.7792037204666
 20
3.904695191419683
 30
0.0
 11
135.7792037204667
 21
3.310889245036786
 31
0.0
1001
ACAD
1000
ASC_BOUNDS
1002
{
1070
    16
1005
131B86
1002
}
  0
LINE
  5
13071D
330
131D0B
100
AcDbEntity
  8
ROGO
100
AcDbLine
 10
136.7792037204666
 20
3.95680350972356
 30
0.0
 11
136.7792037204666
 21
3.304698505124171
 31
0.0
1001
ACAD
1000
ASC_BOUNDS
1002
{
1070
    16
1005
131B86
1002
}
  0
LINE
  5
13071E
330
131D0B
100
AcDbEntity
  8
ROGO
100
AcDbLine
 10
135.7792037204667
 20
5.104872625247262
 30
0.0
 11
135.7792037204667
 21
3.310889245036788
 31
0.0
1001
ACAD
1000
ASC_BOUNDS
1002
{
1070
    16
1005
131B86
1002
}
  0
LINE
  5
13071F
330
131D0B
100
AcDbEntity
  8
ROGO
100
AcDbLine
 10
134.9792037204667
 20
5.104872625247262
 30
0.0
 11
134.9792037204667
 21
3.216285799621058
 31
0.0
1001
ACAD
1000
ASC_BOUNDS
1002
{
1070
    16
1005
131B86
1002
}
  0
LINE
  5
130720
330
131D0B
100
AcDbEntity
  8
ROGO
100
AcDbLine
 10
132.9084856133763
 20
3.704872625247228
 30
0.0
 11
132.9084856133763
 21
2.504872625247193
 31
0.0
1001
ACAD
1000
ASC_BOUNDS
1002
{
1070
    16
1005
131B86
1002
}
  0
LINE
  5
130721
330
131D0B
100
AcDbEntity
  8
ROGO
100
AcDbLine
 10
133.9792037204666
 20
3.093935125247259
 30
0.0
 11
134.9792037204667
 21
3.21628579962106
 31
0.0
1001
ACAD
1000
ASC_BOUNDS
1002
{
1070
    16
1005
131B86
1002
}
  0
LINE
  5
130722
330
131D0B
100
AcDbEntity
  8
ROGO
100
AcDbLine
 10
133.9792037204666
 20
2.504840820616466
 30
0.0
 11
135.7792037204667
 21
2.705704946434272
 31
0.0
1001
ACAD
1000
ASC_BOUNDS
1002
{
1070
    16
1005
131B86
1002
}
  0
LINE
  5
130723
330
131D0B
100
AcDbEntity
  8
ROGO
100
AcDbLine
 10
133.9792037204666
 20
3.093935125247259
 30
0.0
 11
133.9792037204666
 21
2.504840820616465
 31
0.0
1001
ACAD
1000
ASC_BOUNDS
1002
{
1070
    16
1005
131B86
1002
}
  0
LINE
  5
130724
330
131D0B
100
AcDbEntity
  8
ROGO
100
AcDbLine
 10
135.7792037204667
 20
2.709673365783379
 30
0.0
 11
135.7792037204667
 21
2.705704946434272
 31
0.0
  0
LINE
  5
130725
330
131D0B
100
AcDbEntity
  8
ROGO
100
AcDbLine
 10
136.7792037204666
 20
3.304698505124177
 30
0.0
 11
135.7709949066655
 21
2.704788915207513
 31
0.0
1001
ACAD
1000
ASC_BOUNDS
1002
{
1070
    16
1005
131B86
1002
}
  0
LINE
  5
130726
330
131D0B
100
AcDbEntity
  8
ROGO
100
AcDbLine
 10
134.9792037204667
 20
5.104872625247262
 30
0.0
 11
133.9792037204666
 21
5.104872625247262
 31
0.0
1001
ACAD
1000
ASC_BOUNDS
1002
{
1070
    16
1005
131B86
1002
}
  0
LINE
  5
130727
330
131D0B
100
AcDbEntity
  8
ROGO
100
AcDbLine
 10
136.7792037204667
 20
5.70487262524726
 30
0.0
 11
133.9792037204666
 21
5.70487262524726
 31
0.0
1001
ACAD
1000
ASC_BOUNDS
1002
{
1070
    16
1005
131B86
1002
}
  0
LINE
  5
130728
330
131D0B
100
AcDbEntity
  8
ROGO
100
AcDbLine
 10
133.9792037204666
 20
5.70487262524726
 30
0.0
 11
133.9792037204666
 21
5.104872625247262
 31
0.0
1001
ACAD
1000
ASC_BOUNDS
1002
{
1070
    16
1005
131B86
1002
}
  0
LINE
  5
130729
330
131D0B
100
AcDbEntity
  8
ROGO
100
AcDbLine
 10
133.9792037204667
 20
7.50487262524726
 30
0.0
 11
133.9792037204667
 21
6.904872625247259
 31
0.0
1001
ACAD
1000
ASC_BOUNDS
1002
{
1070
    16
1005
131B86
1002
}
  0
LINE
  5
13072A
330
131D0B
100
AcDbEntity
  8
ROGO
100
AcDbLine
 10
132.9084856133763
 20
5.70487262524726
 30
0.0
 11
132.9084856133763
 21
5.104872625247262
 31
0.0
1001
ACAD
1000
ASC_BOUNDS
1002
{
1070
    16
1005
131B86
1002
}
  0
LINE
  5
13072B
330
131D0B
100
AcDbEntity
  8
ROGO
100
AcDbLine
 10
132.9084856133763
 20
7.499247625247258
 30
0.0
 11
132.9084856133763
 21
6.904872625247259
 31
0.0
1001
ACAD
1000
ASC_BOUNDS
1002
{
1070
    16
1005
131B86
1002
}
  0
LINE
  5
13072C
330
131D0B
100
AcDbEntity
  8
ROGO
100
AcDbLine
 10
136.7792037204667
 20
5.70487262524726
 30
0.0
 11
136.7792037204667
 21
5.104872625247262
 31
0.0
1001
ACAD
1000
ASC_BOUNDS
1002
{
1070
    16
1005
131B86
1002
}
  0
LINE
  5
13072D
330
131D0B
100
AcDbEntity
  8
ROGO
100
AcDbLine
 10
136.7792037204667
 20
5.104872625247262
 30
0.0
 11
135.7792037204667
 21
5.104872625247262
 31
0.0
1001
ACAD
1000
ASC_BOUNDS
1002
{
1070
    16
1005
131B86
1002
}
  0
ARC
  5
13072E
330
131D0B
100
AcDbEntity
  8
ROGO
100
AcDbCircle
 10
139.1376818336409
 20
12.42873508705442
 30
0.0
 40
5.545240904961903
100
AcDbArc
 50
275.5844105367471
 51
303.2401292219479
1001
ACAD
1000
ASC_BOUNDS
1002
{
1070
    16
1005
131B86
1002
}
  0
ARC
  5
13072F
330
131D0B
100
AcDbEntity
  8
ROGO
100
AcDbCircle
 10
139.0561103010598
 20
12.6009531667197
 30
0.0
 40
5.137815343877081
100
AcDbArc
 50
276.9443697858968
 51
303.262268601217
1001
ACAD
1000
ASC_BOUNDS
1002
{
1070
    16
1005
131B86
1002
}
  0
LINE
  5
130730
330
131D0B
100
AcDbEntity
  8
ROGO
100
AcDbLine
 10
140.0773009113263
 20
2.504872625247262
 30
0.0
 11
143.4641400787164
 21
2.504872625247262
 31
0.0
1001
ACAD
1000
ASC_BOUNDS
1002
{
1070
    16
1005
131B86
1002
}
  0
LINE
  5
130731
330
131D0B
100
AcDbEntity
  8
ROGO
100
AcDbLine
 10
139.6773009113263
 20
5.304872625247261
 30
0.0
 11
144.6773009113262
 21
5.304872625247261
 31
0.0
1001
ACAD
1000
ASC_BOUNDS
1002
{
1070
    16
1005
131B86
1002
}
  0
LINE
  5
130732
330
131D0B
100
AcDbEntity
  8
ROGO
100
AcDbLine
 10
140.6773009113262
 20
6.104872625247262
 30
0.0
 11
143.6773009113262
 21
6.104872625247262
 31
0.0
1001
ACAD
1000
ASC_BOUNDS
1002
{
1070
    16
1005
131B86
1002
}
  0
LINE
  5
130733
330
131D0B
100
AcDbEntity
  8
ROGO
100
AcDbLine
 10
140.6773009113263
 20
6.704872625247263
 30
0.0
 11
143.6773009113262
 21
6.704872625247263
 31
0.0
1001
ACAD
1000
ASC_BOUNDS
1002
{
1070
    16
1005
131B86
1002
}
  0
LINE
  5
130734
330
131D0B
100
AcDbEntity
  8
ROGO
100
AcDbLine
 10
140.0773009113263
 20
2.504872625247262
 30
0.0
 11
140.6773009113262
 21
4.704872625247263
 31
0.0
1001
ACAD
1000
ASC_BOUNDS
1002
{
1070
    16
1005
131B86
1002
}
  0
LINE
  5
130735
330
131D0B
100
AcDbEntity
  8
ROGO
100
AcDbLine
 10
138.9792037204667
 20
3.560906552400476
 30
0.0
 11
138.9792037204667
 21
2.504689924486342
 31
0.0
1001
ACAD
1000
ASC_BOUNDS
1002
{
1070
    16
1005
131B86
1002
}
  0
LINE
  5
130736
330
131D0B
100
AcDbEntity
  8
ROGO
100
AcDbLine
 10
138.9792037204667
 20
2.504689924486312
 30
0.0
 11
138.2454362008177
 21
3.608091150301239
 31
0.0
1001
ACAD
1000
ASC_BOUNDS
1002
{
1070
    16
1005
131B86
1002
}
  0
LINE
  5
130737
330
131D0B
100
AcDbEntity
  8
ROGO
100
AcDbLine
 10
137.6923143719746
 20
7.50487262524726
 30
0.0
 11
138.9792037204667
 21
7.50487262524726
 31
0.0
1001
ACAD
1000
ASC_BOUNDS
1002
{
1070
    16
1005
131B86
1002
}
  0
LINE
  5
130738
330
131D0B
100
AcDbEntity
  8
ROGO
100
AcDbLine
 10
137.7774803222439
 20
6.904872625247259
 30
0.0
 11
137.9625341989572
 21
5.601155286607395
 31
0.0
1001
ACAD
1000
ASC_BOUNDS
1002
{
1070
    16
1005
131B86
1002
}
  0
LINE
  5
130739
330
131D0B
100
AcDbEntity
  8
ROGO
100
AcDbLine
 10
137.1569496689686
 20
6.904872625247259
 30
0.0
 11
137.3131579520707
 21
5.673983637969763
 31
0.0
1001
ACAD
1000
ASC_BOUNDS
1002
{
1070
    16
1005
131B86
1002
}
  0
ARC
  5
13073A
330
131D0B
100
AcDbEntity
  8
ROGO
100
AcDbCircle
 10
142.7609133987897
 20
6.718788612478201
 30
0.0
 40
4.926819176353306
100
AcDbArc
 50
193.1115023773667
 51
219.8632603926315
1001
ACAD
1000
ASC_BOUNDS
1002
{
1070
    16
1005
131B86
1002
}
  0
ARC
  5
13073B
330
131D0B
100
AcDbEntity
  8
ROGO
100
AcDbCircle
 10
141.8786268903513
 20
6.4909478046519
 30
0.0
 40
4.637988473039498
100
AcDbArc
 50
190.145368285017
 51
218.4312245036701
1001
ACAD
1000
ASC_BOUNDS
1002
{
1070
    16
1005
131B86
1002
}
  0
LINE
  5
13073C
330
131D0B
100
AcDbEntity
  8
ROGO
100
AcDbLine
 10
137.5787597716154
 20
8.304872625247258
 30
0.0
 11
137.6923143719746
 21
7.50487262524726
 31
0.0
1001
ACAD
1000
ASC_BOUNDS
1002
{
1070
    16
1005
131B86
1002
}
  0
LINE
  5
13073D
330
131D0B
100
AcDbEntity
  8
ROGO
100
AcDbLine
 10
136.9792800345798
 20
8.304872625247261
 30
0.0
 11
137.0808055399448
 21
7.50487262524726
 31
0.0
1001
ACAD
1000
ASC_BOUNDS
1002
{
1070
    16
1005
131B86
1002
}
  0
LINE
  5
13073E
330
131D0B
100
AcDbEntity
  8
ROGO
100
AcDbLine
 10
138.9792037204667
 20
7.50487262524726
 30
0.0
 11
138.9792037204667
 21
6.904872625247259
 31
0.0
1001
ACAD
1000
ASC_BOUNDS
1002
{
1070
    16
1005
131B86
1002
}
  0
LINE
  5
13073F
330
131D0B
100
AcDbEntity
  8
ROGO
100
AcDbLine
 10
138.1453244993456
 20
8.481270212048759
 30
0.0
 11
138.1453244993456
 21
8.081270212048757
 31
0.0
1001
ACAD
1000
ASC_BOUNDS
1002
{
1070
    16
1005
131B86
1002
}
  0
LINE
  5
130740
330
131D0B
100
AcDbEntity
  8
ROGO
100
AcDbLine
 10
139.1453244993456
 20
8.481270212048759
 30
0.0
 11
139.1453244993456
 21
8.081270212048757
 31
0.0
1001
ACAD
1000
ASC_BOUNDS
1002
{
1070
    16
1005
131B86
1002
}
  0
LINE
  5
130741
330
131D0B
100
AcDbEntity
  8
ROGO
100
AcDbLine
 10
138.1453244993456
 20
8.081270212048757
 30
0.0
 11
139.1453244993456
 21
8.081270212048757
 31
0.0
1001
ACAD
1000
ASC_BOUNDS
1002
{
1070
    16
1005
131B86
1002
}
  0
LINE
  5
130742
330
131D0B
100
AcDbEntity
  8
ROGO
100
AcDbLine
 10
138.1453244993456
 20
8.481270212048759
 30
0.0
 11
139.1453244993456
 21
8.481270212048759
 31
0.0
1001
ACAD
1000
ASC_BOUNDS
1002
{
1070
    16
1005
131B86
1002
}
  0
LINE
  5
130743
330
131D0B
100
AcDbEntity
  8
ROGO
100
AcDbLine
 10
136.9792800345798
 20
8.304872625247261
 30
0.0
 11
137.5787597716154
 21
8.304872625247261
 31
0.0
1001
ACAD
1000
ASC_BOUNDS
1002
{
1070
    16
1005
131B86
1002
}
  0
LINE
  5
130744
330
131D0B
100
AcDbEntity
  8
ROGO
100
AcDbLine
 10
138.9792037204667
 20
6.904872625247259
 30
0.0
 11
137.7774803222439
 21
6.904872625247259
 31
0.0
1001
ACAD
1000
ASC_BOUNDS
1002
{
1070
    16
1005
131B86
1002
}
  0
LINE
  5
130745
330
131D0B
100
AcDbEntity
  8
ROGO
100
AcDbLine
 10
139.6773009113262
 20
7.500828782599688
 30
0.0
 11
139.6773009113262
 21
6.909812371065294
 31
0.0
1001
ACAD
1000
ASC_BOUNDS
1002
{
1070
    16
1005
131B86
1002
}
  0
LINE
  5
130746
330
131D0B
100
AcDbEntity
  8
ROGO
100
AcDbLine
 10
139.6773009113262
 20
4.704872625247263
 30
0.0
 11
140.6773009113262
 21
4.704872625247263
 31
0.0
1001
ACAD
1000
ASC_BOUNDS
1002
{
1070
    16
1005
131B86
1002
}
  0
LINE
  5
130747
330
131D0B
100
AcDbEntity
  8
ROGO
100
AcDbLine
 10
140.6773009113263
 20
6.704872625247263
 30
0.0
 11
140.6773009113263
 21
6.104872625247262
 31
0.0
1001
ACAD
1000
ASC_BOUNDS
1002
{
1070
    16
1005
131B86
1002
}
  0
LINE
  5
130748
330
131D0B
100
AcDbEntity
  8
ROGO
100
AcDbLine
 10
139.6773009113263
 20
5.304872625247261
 30
0.0
 11
139.6773009113263
 21
4.704872625247263
 31
0.0
1001
ACAD
1000
ASC_BOUNDS
1002
{
1070
    16
1005
131B86
1002
}
  0
LINE
  5
130749
330
131D0B
100
AcDbEntity
  8
ROGO
100
AcDbLine
 10
141.4773009113262
 20
4.704872625247263
 30
0.0
 11
141.0773009113262
 21
3.104872625247262
 31
0.0
1001
ACAD
1000
ASC_BOUNDS
1002
{
1070
    16
1005
131B86
1002
}
  0
LINE
  5
13074A
330
131D0B
100
AcDbEntity
  8
ROGO
100
AcDbLine
 10
143.4782568494929
 20
3.704872625247261
 30
0.0
 11
143.0415488238921
 21
3.104872625247262
 31
0.0
1001
ACAD
1000
ASC_BOUNDS
1002
{
1070
    16
1005
131B86
1002
}
  0
LINE
  5
13074B
330
131D0B
100
AcDbEntity
  8
ROGO
100
AcDbLine
 10
144.2773009113263
 20
3.704872625247261
 30
0.0
 11
144.6773009113263
 21
2.504872625247262
 31
0.0
1001
ACAD
1000
ASC_BOUNDS
1002
{
1070
    16
1005
131B86
1002
}
  0
LINE
  5
13074C
330
131D0B
100
AcDbEntity
  8
ROGO
100
AcDbLine
 10
141.0773009113262
 20
3.104872625247262
 30
0.0
 11
143.041548823892
 21
3.104872625247262
 31
0.0
1001
ACAD
1000
ASC_BOUNDS
1002
{
1070
    16
1005
131B86
1002
}
  0
LINE
  5
13074D
330
131D0B
100
AcDbEntity
  8
ROGO
100
AcDbLine
 10
143.8700092446596
 20
3.093935125247261
 30
0.0
 11
143.4641400787164
 21
2.504872625247262
 31
0.0
1001
ACAD
1000
ASC_BOUNDS
1002
{
1070
    16
1005
131B86
1002
}
  0
LINE
  5
13074E
330
131D0B
100
AcDbEntity
  8
ROGO
100
AcDbLine
 10
143.8809467446596
 20
3.093935125247261
 30
0.0
 11
144.0773009113263
 21
2.504872625247262
 31
0.0
1001
ACAD
1000
ASC_BOUNDS
1002
{
1070
    16
1005
131B86
1002
}
  0
LINE
  5
13074F
330
131D0B
100
AcDbEntity
  8
ROGO
100
AcDbLine
 10
144.0773009113263
 20
2.504872625247262
 30
0.0
 11
144.6773009113263
 21
2.504872625247262
 31
0.0
1001
ACAD
1000
ASC_BOUNDS
1002
{
1070
    16
1005
131B86
1002
}
  0
ARC
  5
130750
330
131D0B
100
AcDbEntity
  8
ROGO
100
AcDbCircle
 10
145.2984915215927
 20
12.6009531667197
 30
0.0
 40
5.137815343877081
100
AcDbArc
 50
236.7377313987829
 51
263.0556302141032
1001
ACAD
1000
ASC_BOUNDS
1002
{
1070
    16
1005
131B86
1002
}
  0
ARC
  5
130751
330
131D0B
100
AcDbEntity
  8
ROGO
100
AcDbCircle
 10
145.2169199890115
 20
12.42873508705442
 30
0.0
 40
5.545240904961903
100
AcDbArc
 50
236.7598707780521
 51
264.4155894632529
1001
ACAD
1000
ASC_BOUNDS
1002
{
1070
    16
1005
131B86
1002
}
  0
LINE
  5
130752
330
131D0B
100
AcDbEntity
  8
ROGO
100
AcDbLine
 10
141.4773009113262
 20
4.704872625247263
 30
0.0
 11
144.6773009113262
 21
4.704872625247263
 31
0.0
1001
ACAD
1000
ASC_BOUNDS
1002
{
1070
    16
1005
131B86
1002
}
  0
LINE
  5
130753
330
131D0B
100
AcDbEntity
  8
ROGO
100
AcDbLine
 10
141.8740596421518
 20
8.304872625247261
 30
0.0
 11
142.4805421805007
 21
8.304872625247261
 31
0.0
1001
ACAD
1000
ASC_BOUNDS
1002
{
1070
    16
1005
131B86
1002
}
  0
LINE
  5
130754
330
131D0B
100
AcDbEntity
  8
ROGO
100
AcDbLine
 10
144.6773009113262
 20
7.500828782599688
 30
0.0
 11
144.6773009113262
 21
6.909812371065294
 31
0.0
1001
ACAD
1000
ASC_BOUNDS
1002
{
1070
    16
1005
131B86
1002
}
  0
LINE
  5
130755
330
131D0B
100
AcDbEntity
  8
ROGO
100
AcDbLine
 10
143.4782568494929
 20
3.704872625247261
 30
0.0
 11
144.2773009113263
 21
3.704872625247261
 31
0.0
1001
ACAD
1000
ASC_BOUNDS
1002
{
1070
    16
1005
131B86
1002
}
  0
LINE
  5
130756
330
131D0B
100
AcDbEntity
  8
ROGO
100
AcDbLine
 10
143.6773009113262
 20
6.704872625247263
 30
0.0
 11
143.6773009113262
 21
6.104872625247262
 31
0.0
1001
ACAD
1000
ASC_BOUNDS
1002
{
1070
    16
1005
131B86
1002
}
  0
LINE
  5
130757
330
131D0B
100
AcDbEntity
  8
ROGO
100
AcDbLine
 10
144.6773009113263
 20
5.304872625247261
 30
0.0
 11
144.6773009113263
 21
4.704872625247263
 31
0.0
1001
ACAD
1000
ASC_BOUNDS
1002
{
1070
    16
1005
131B86
1002
}
  0
LINE
  5
130758
330
131D0B
100
AcDbEntity
  8
ROGO
100
AcDbLine
 10
147.7008732321272
 20
2.50487262524726
 30
0.0
 11
150.1008732321272
 21
2.50487262524726
 31
0.0
1001
ACAD
1000
ASC_BOUNDS
1002
{
1070
    16
1005
131B86
1002
}
  0
LINE
  5
130759
330
131D0B
100
AcDbEntity
  8
ROGO
100
AcDbLine
 10
148.5008732321273
 20
8.304872625247261
 30
0.0
 11
149.3008732321273
 21
8.304872625247261
 31
0.0
1001
ACAD
1000
ASC_BOUNDS
1002
{
1070
    16
1005
131B86
1002
}
  0
LINE
  5
13075A
330
131D0B
100
AcDbEntity
  8
ROGO
100
AcDbLine
 10
146.7008732321272
 20
5.584872625247266
 30
0.0
 11
146.7008732321272
 21
2.50487262524726
 31
0.0
1001
ACAD
1000
ASC_BOUNDS
1002
{
1070
    16
1005
131B86
1002
}
  0
LINE
  5
13075B
330
131D0B
100
AcDbEntity
  8
ROGO
100
AcDbLine
 10
145.9008732321273
 20
4.435207725915839
 30
0.0
 11
145.9008732321273
 21
2.50487262524726
 31
0.0
1001
ACAD
1000
ASC_BOUNDS
1002
{
1070
    16
1005
131B86
1002
}
  0
LINE
  5
13075C
330
131D0B
100
AcDbEntity
  8
ROGO
100
AcDbLine
 10
148.5008732321273
 20
3.10487262524726
 30
0.0
 11
148.5008732321273
 21
6.104872625247258
 31
0.0
1001
ACAD
1000
ASC_BOUNDS
1002
{
1070
    16
1005
131B86
1002
}
  0
LINE
  5
13075D
330
131D0B
100
AcDbEntity
  8
ROGO
100
AcDbLine
 10
145.9008732321273
 20
2.50487262524726
 30
0.0
 11
146.7008732321272
 21
2.50487262524726
 31
0.0
1001
ACAD
1000
ASC_BOUNDS
1002
{
1070
    16
1005
131B86
1002
}
  0
LINE
  5
13075E
330
131D0B
100
AcDbEntity
  8
ROGO
100
AcDbLine
 10
147.7008732321272
 20
3.10487262524726
 30
0.0
 11
148.5008732321273
 21
3.10487262524726
 31
0.0
1001
ACAD
1000
ASC_BOUNDS
1002
{
1070
    16
1005
131B86
1002
}
  0
LINE
  5
13075F
330
131D0B
100
AcDbEntity
  8
ROGO
100
AcDbLine
 10
147.7008732321272
 20
3.10487262524726
 30
0.0
 11
147.7008732321272
 21
2.50487262524726
 31
0.0
1001
ACAD
1000
ASC_BOUNDS
1002
{
1070
    16
1005
131B86
1002
}
  0
LINE
  5
130760
330
131D0B
100
AcDbEntity
  8
ROGO
100
AcDbLine
 10
146.9562558650181
 20
6.067811592371997
 30
0.0
 11
147.5008732321273
 21
5.706094889309847
 31
0.0
1001
ACAD
1000
ASC_BOUNDS
1002
{
1070
    16
1005
131B86
1002
}
  0
ARC
  5
130761
330
131D0B
100
AcDbEntity
  8
ROGO
100
AcDbCircle
 10
139.2224214827072
 20
9.909858446684561
 30
0.0
 40
8.635596000493864
100
AcDbArc
 50
333.5825390011133
 51
343.8294907051774
1001
ACAD
1000
ASC_BOUNDS
1002
{
1070
    16
1005
131B86
1002
}
  0
LINE
  5
130762
330
131D0B
100
AcDbEntity
  8
ROGO
100
AcDbLine
 10
146.7008732321272
 20
7.50487262524726
 30
0.0
 11
147.5163687626477
 21
7.50487262524726
 31
0.0
1001
ACAD
1000
ASC_BOUNDS
1002
{
1070
    16
1005
131B86
1002
}
  0
LINE
  5
130763
330
131D0B
100
AcDbEntity
  8
ROGO
100
AcDbLine
 10
147.5008732321273
 20
5.10487262524723
 30
0.0
 11
146.7008732321273
 21
5.584872625247252
 31
0.0
1001
ACAD
1000
ASC_BOUNDS
1002
{
1070
    16
1005
131B86
1002
}
  0
ARC
  5
130764
330
131D0B
100
AcDbEntity
  8
ROGO
100
AcDbCircle
 10
139.2479561813781
 20
10.57043169505665
 30
0.0
 40
8.486360163748498
100
AcDbArc
 50
315.5001623298722
 51
334.4095539324751
1001
ACAD
1000
ASC_BOUNDS
1002
{
1070
    16
1005
131B86
1002
}
  0
ARC
  5
130765
330
131D0B
100
AcDbEntity
  8
ROGO
100
AcDbCircle
 10
139.2224214827072
 20
9.909858446684561
 30
0.0
 40
8.635596000493864
100
AcDbArc
 50
314.739397444376
 51
320.6568651559964
1001
ACAD
1000
ASC_BOUNDS
1002
{
1070
    16
1005
131B86
1002
}
  0
LINE
  5
130766
330
131D0B
100
AcDbEntity
  8
ROGO
100
AcDbLine
 10
145.3008732321273
 20
4.622280385144813
 30
0.0
 11
145.3008732321273
 21
3.775859537839108
 31
0.0
1001
ACAD
1000
ASC_BOUNDS
1002
{
1070
    16
1005
131B86
1002
}
  0
LINE
  5
130767
330
131D0B
100
AcDbEntity
  8
ROGO
100
AcDbLine
 10
145.3008732321273
 20
7.50487262524726
 30
0.0
 11
145.9008732321273
 21
7.50487262524726
 31
0.0
1001
ACAD
1000
ASC_BOUNDS
1002
{
1070
    16
1005
131B86
1002
}
  0
LINE
  5
130768
330
131D0B
100
AcDbEntity
  8
ROGO
100
AcDbLine
 10
145.3008732321273
 20
7.50487262524726
 30
0.0
 11
145.3008732321273
 21
6.904872625247259
 31
0.0
1001
ACAD
1000
ASC_BOUNDS
1002
{
1070
    16
1005
131B86
1002
}
  0
LINE
  5
130769
330
131D0B
100
AcDbEntity
  8
ROGO
100
AcDbLine
 10
145.3008732321273
 20
6.904872625247259
 30
0.0
 11
146.9018431373368
 21
6.904872625247259
 31
0.0
1001
ACAD
1000
ASC_BOUNDS
1002
{
1070
    16
1005
131B86
1002
}
  0
LINE
  5
13076A
330
131D0B
100
AcDbEntity
  8
ROGO
100
AcDbLine
 10
146.7008732321272
 20
8.304872625247261
 30
0.0
 11
146.7008732321272
 21
7.50487262524726
 31
0.0
1001
ACAD
1000
ASC_BOUNDS
1002
{
1070
    16
1005
131B86
1002
}
  0
LINE
  5
13076B
330
131D0B
100
AcDbEntity
  8
ROGO
100
AcDbLine
 10
145.9008732321273
 20
8.304872625247261
 30
0.0
 11
145.9008732321273
 21
7.50487262524726
 31
0.0
1001
ACAD
1000
ASC_BOUNDS
1002
{
1070
    16
1005
131B86
1002
}
  0
LINE
  5
13076C
330
131D0B
100
AcDbEntity
  8
ROGO
100
AcDbLine
 10
145.9008732321273
 20
8.304872625247261
 30
0.0
 11
146.7008732321272
 21
8.304872625247261
 31
0.0
1001
ACAD
1000
ASC_BOUNDS
1002
{
1070
    16
1005
131B86
1002
}
  0
LINE
  5
13076D
330
131D0B
100
AcDbEntity
  8
ROGO
100
AcDbLine
 10
148.5008732321273
 20
6.104872625247262
 30
0.0
 11
147.7008732321273
 21
6.104872625247258
 31
0.0
1001
ACAD
1000
ASC_BOUNDS
1002
{
1070
    16
1005
131B86
1002
}
  0
LINE
  5
13076E
330
131D0B
100
AcDbEntity
  8
ROGO
100
AcDbLine
 10
148.5008732321273
 20
6.70487262524726
 30
0.0
 11
148.5008732321273
 21
8.304872625247261
 31
0.0
1001
ACAD
1000
ASC_BOUNDS
1002
{
1070
    16
1005
131B86
1002
}
  0
LINE
  5
13076F
330
131D0B
100
AcDbEntity
  8
ROGO
100
AcDbLine
 10
147.7008732321273
 20
6.70487262524726
 30
0.0
 11
147.7008732321273
 21
6.104872625247262
 31
0.0
1001
ACAD
1000
ASC_BOUNDS
1002
{
1070
    16
1005
131B86
1002
}
  0
LINE
  5
130770
330
131D0B
100
AcDbEntity
  8
ROGO
100
AcDbLine
 10
147.7008732321273
 20
6.70487262524726
 30
0.0
 11
148.5008732321273
 21
6.70487262524726
 31
0.0
1001
ACAD
1000
ASC_BOUNDS
1002
{
1070
    16
1005
131B86
1002
}
  0
LINE
  5
130771
330
131D0B
100
AcDbEntity
  8
ROGO
100
AcDbLine
 10
147.5008732321273
 20
5.10487262524724
 30
0.0
 11
147.5008732321273
 21
5.706094889309847
 31
0.0
1001
ACAD
1000
ASC_BOUNDS
1002
{
1070
    16
1005
131B86
1002
}
  0
LINE
  5
130772
330
131D0B
100
AcDbEntity
  8
ROGO
100
AcDbLine
 10
149.3008732321273
 20
3.10487262524726
 30
0.0
 11
149.3008732321272
 21
6.104872625247258
 31
0.0
1001
ACAD
1000
ASC_BOUNDS
1002
{
1070
    16
1005
131B86
1002
}
  0
LINE
  5
130773
330
131D0B
100
AcDbEntity
  8
ROGO
100
AcDbLine
 10
149.3008732321273
 20
3.10487262524726
 30
0.0
 11
150.1008732321272
 21
3.10487262524726
 31
0.0
1001
ACAD
1000
ASC_BOUNDS
1002
{
1070
    16
1005
131B86
1002
}
  0
LINE
  5
130774
330
131D0B
100
AcDbEntity
  8
ROGO
100
AcDbLine
 10
150.1008732321272
 20
3.10487262524726
 30
0.0
 11
150.1008732321273
 21
2.50487262524726
 31
0.0
1001
ACAD
1000
ASC_BOUNDS
1002
{
1070
    16
1005
131B86
1002
}
  0
LINE
  5
130775
330
131D0B
100
AcDbEntity
  8
ROGO
100
AcDbLine
 10
149.3008732321273
 20
6.70487262524726
 30
0.0
 11
150.0959433725612
 21
6.70487262524726
 31
0.0
1001
ACAD
1000
ASC_BOUNDS
1002
{
1070
    16
1005
131B86
1002
}
  0
LINE
  5
130776
330
131D0B
100
AcDbEntity
  8
ROGO
100
AcDbLine
 10
149.3008732321273
 20
6.70487262524726
 30
0.0
 11
149.3008732321273
 21
8.304872625247261
 31
0.0
1001
ACAD
1000
ASC_BOUNDS
1002
{
1070
    16
1005
131B86
1002
}
  0
LINE
  5
130777
330
131D0B
100
AcDbEntity
  8
ROGO
100
AcDbLine
 10
150.0959433725612
 20
6.104872625247262
 30
0.0
 11
149.3008732321273
 21
6.104872625247262
 31
0.0
1001
ACAD
1000
ASC_BOUNDS
1002
{
1070
    16
1005
131B86
1002
}
  0
LINE
  5
130778
330
131D0B
100
AcDbEntity
  8
ROGO
100
AcDbLine
 10
150.0959433725612
 20
6.70487262524726
 30
0.0
 11
150.0959433725612
 21
6.104872625247262
 31
0.0
1001
ACAD
1000
ASC_BOUNDS
1002
{
1070
    16
1005
131B86
1002
}
  0
INSERT
  5
131B86
330
131D0B
100
AcDbEntity
  8
ROGO
100
AcDbBlockReference
  2
*X2
 10
0.0
 20
0.0
 30
0.0
1001
ACAD
1000
HATCH
1002
{
1070
    16
1000
ANSI31
1040
0.15
1040
0.0
1000
ASC_BOUNDS
1070
    22
1070
     1
1070
    16
1005
130773
1005
130772
1005
130777
1005
130778
1005
130775
1005
130776
1005
130759
1005
13076E
1005
130770
1005
13076F
1005
13076D
1005
13075C
1005
13075E
1005
13075F
1005
130758
1005
130774
1070
     1
1070
    17
1005
130763
1005
130771
1005
130760
1005
130761
1005
130762
1005
13076A
1005
13076C
1005
13076B
1005
130767
1005
130768
1005
130769
1005
130764
1005
130766
1005
130765
1005
13075B
1005
13075D
1005
13075A
1070
     1
1070
    15
1005
130731
1005
130748
1005
130746
1005
130734
1005
130730
1005
13074D
1005
13074E
1005
13074F
1005
13074B
1005
130755
1005
13074A
1005
13074C
1005
130749
1005
130752
1005
130757
1070
     1
1070
     4
1005
130733
1005
130747
1005
130732
1005
130756
1070
     1
1070
     7
1005
130753
1005
13072F
1005
130745
1005
13072E
1005
130751
1005
130754
1005
130750
1070
     1
1070
     4
1005
130742
1005
13073F
1005
130741
1005
130740
1070
     1
1070
    15
1005
130737
1005
13073C
1005
130743
1005
13073D
1005
1306B6
1005
130729
1005
1306B5
1005
130739
1005
13073B
1005
130736
1005
130735
1005
13073A
1005
130738
1005
130744
1005
13073E
1070
     1
1070
    13
1005
130727
1005
130728
1005
130726
1005
13071F
1005
130721
1005
130723
1005
130722
1005
130725
1005
13071D
1005
13071C
1005
13071E
1005
13072D
1005
13072C
1070
     1
1070
    32
1005
130716
1005
1306FB
1005
13072A
1005
1306F8
1005
130712
1005
1306F7
1005
13072B
1005
1306FC
1005
13071B
1005
130717
1005
13071A
1005
130714
1005
130718
1005
130707
1005
13070A
1005
130709
1005
130704
1005
130719
1005
130713
1005
130706
1005
13070B
1005
130703
1005
130715
1005
130705
1005
130701
1005
130700
1005
1306FF
1005
130702
1005
1306FE
1005
1306F9
1005
130720
1005
1306FA
1070
     1
1070
    19
1005
13070D
1005
13070E
1005
13070C
1005
130711
1005
130710
1005
130708
1005
13070F
1005
1306DF
1005
1306F4
1005
1306F5
1005
1306F6
1005
1306F2
1005
1306F1
1005
1306F3
1005
1306EB
1005
1306EA
1005
1306E9
1005
1306DE
1005
1306FD
1070
     1
1070
    11
1005
1306E3
1005
1306E7
1005
1306E0
1005
1306E2
1005
1306E5
1005
1306E1
1005
1306ED
1005
1306EE
1005
1306EC
1005
1306EF
1005
1306F0
1070
     1
1070
    12
1005
1306BA
1005
1306DD
1005
1306DC
1005
1306DA
1005
1306D4
1005
1306D5
1005
1306B7
1005
1306E6
1005
1306B8
1005
1306DB
1005
1306B9
1005
1306E8
1070
     1
1070
     4
1005
1306D6
1005
1306D8
1005
1306D7
1005
1306D9
1070
     1
1070
     8
1005
1306CB
1005
1306CA
1005
1306C5
1005
1306BC
1005
1306C1
1005
1306BB
1005
1306C6
1005
1306C9
1070
     1
1070
     4
1005
1306CF
1005
1306CC
1005
1306CE
1005
1306CD
1070
     1
1070
     4
1005
1306D0
1005
1306D3
1005
1306D1
1005
1306D2
1070
     1
1070
     4
1005
1306BF
1005
1306C4
1005
1306C0
1005
1306C8
1070
     1
1070
     4
1005
1306BE
1005
1306C3
1005
1306BD
1005
1306C7
1070
     1
1070
     4
1005
130692
1005
1306B1
1005
130691
1005
1306C2
1070
     1
1070
    16
1005
1306AC
1005
1306AD
1005
1306B0
1005
1306A2
1005
1306A8
1005
1306A1
1005
1306AF
1005
1306AE
1005
1306AA
1005
13069F
1005
1306A7
1005
1306A0
1005
1306AB
1005
1306B3
1005
1306B2
1005
1306B4
1070
     1
1070
    11
1005
1306A3
1005
1306A9
1005
130693
1005
13069A
1005
13069D
1005
13069B
1005
130698
1005
130694
1005
1306A4
1005
1306A6
1005
1306A5
1070
     1
1070
     6
1005
130696
1005
13069E
1005
130695
1005
130694
1005
130699
1005
130697
1000
ASC_SEEDPOINT
1011
80.67097109165652
1021
7.98121005902152
1031
0.0
1002
}
  0
ENDBLK
  5
131CEA
330
131D0B
100
AcDbEntity
  8
0
100
AcDbBlockEnd
  0
BLOCK
  5
131B85
330
131D0C
100
AcDbEntity
  8
0
100
AcDbBlockBegin
  2
*X2
 70
     1
 10
0.0
 20
0.0
 30
0.0
  3
*X2
  1

  0
LINE
  5
131B87
330
131D0C
100
AcDbEntity
  8
0
 62
     0
100
AcDbLine
 10
113.3414652871572
 20
4.904872625247258
 30
0.0
 11
114.1414652871572
 21
5.70487262524726
 31
0.0
  0
LINE
  5
131B88
330
131D0C
100
AcDbEntity
  8
0
 62
     0
100
AcDbLine
 10
110.3995814052791
 20
2.636507952449302
 30
0.0
 11
111.8313255210802
 21
4.068252068250443
 31
0.0
  0
LINE
  5
131B89
330
131D0C
100
AcDbEntity
  8
0
 62
     0
100
AcDbLine
 10
112.8415742692541
 20
5.078500816424298
 30
0.0
 11
113.467946078077
 21
5.70487262524726
 31
0.0
  0
LINE
  5
131B8A
330
131D0C
100
AcDbEntity
  8
0
 62
     0
100
AcDbLine
 10
109.5944268689969
 20
2.50487262524726
 30
0.0
 11
111.943478223082
 21
4.85392397933235
 31
0.0
  0
LINE
  5
131B8B
330
131D0C
100
AcDbEntity
  8
0
 62
     0
100
AcDbLine
 10
108.9209076599167
 20
2.50487262524726
 30
0.0
 11
109.7250183765852
 21
3.308983341915802
 31
0.0
  0
LINE
  5
131B8C
330
131D0C
100
AcDbEntity
  8
0
 62
     0
100
AcDbLine
 10
111.1397671448177
 20
4.723732110148303
 30
0.0
 11
111.943478223082
 21
5.527443188412552
 31
0.0
  0
LINE
  5
131B8D
330
131D0C
100
AcDbEntity
  8
0
 62
     0
100
AcDbLine
 10
108.2473884508365
 20
2.50487262524726
 30
0.0
 11
109.0473884508365
 21
3.304872625247259
 31
0.0
  0
LINE
  5
131B8E
330
131D0C
100
AcDbEntity
  8
0
 62
     0
100
AcDbLine
 10
112.2495759508365
 20
6.507060125247258
 30
0.0
 11
112.4299903945414
 21
6.687474568952128
 31
0.0
  0
LINE
  5
131B8F
330
131D0C
100
AcDbEntity
  8
0
 62
     0
100
AcDbLine
 10
111.1434782230819
 20
5.400962397492702
 30
0.0
 11
111.8473884508365
 21
6.104872625247263
 31
0.0
  0
LINE
  5
131B90
330
131D0C
100
AcDbEntity
  8
0
 62
     0
100
AcDbLine
 10
107.5738692417563
 20
2.50487262524726
 30
0.0
 11
108.3738692417563
 21
3.304872625247259
 31
0.0
  0
LINE
  5
131B91
330
131D0C
100
AcDbEntity
  8
0
 62
     0
100
AcDbLine
 10
111.9299903945414
 20
6.860993778032308
 30
0.0
 11
112.4299903945414
 21
7.360993778032325
 31
0.0
  0
LINE
  5
131B92
330
131D0C
100
AcDbEntity
  8
0
 62
     0
100
AcDbLine
 10
111.1434782230819
 20
6.074481606572899
 30
0.0
 11
111.1738692417563
 21
6.104872625247262
 31
0.0
  0
LINE
  5
131B93
330
131D0C
100
AcDbEntity
  8
0
 62
     0
100
AcDbLine
 10
106.9003500326761
 20
2.50487262524726
 30
0.0
 11
107.7003500326761
 21
3.304872625247259
 31
0.0
  0
LINE
  5
131B94
330
131D0C
100
AcDbEntity
  8
0
 62
     0
100
AcDbLine
 10
110.9025375326761
 20
6.507060125247258
 30
0.0
 11
111.2763706337949
 21
6.880893226366072
 31
0.0
  0
LINE
  5
131B95
330
131D0C
100
AcDbEntity
  8
0
 62
     0
100
AcDbLine
 10
106.5434782230819
 20
2.821520024733249
 30
0.0
 11
107.0268308235959
 21
3.304872625247259
 31
0.0
  0
LINE
  5
131B96
330
131D0C
100
AcDbEntity
  8
0
 62
     0
100
AcDbLine
 10
110.7763706337949
 20
7.05441243544627
 30
0.0
 11
111.2212058235959
 21
7.499247625247258
 31
0.0
  0
LINE
  5
131B97
330
131D0C
100
AcDbEntity
  8
0
 62
     0
100
AcDbLine
 10
108.3533116145158
 20
5.304872625247261
 30
0.0
 11
108.9434782230819
 21
5.895039233813409
 31
0.0
  0
LINE
  5
131B98
330
131D0C
100
AcDbEntity
  8
0
 62
     0
100
AcDbLine
 10
107.6797924054355
 20
5.304872625247261
 30
0.0
 11
108.4797924054356
 21
6.104872625247259
 31
0.0
  0
LINE
  5
131B99
330
131D0C
100
AcDbEntity
  8
0
 62
     0
100
AcDbLine
 10
107.0062731963554
 20
5.304872625247261
 30
0.0
 11
107.8062731963554
 21
6.10487262524726
 31
0.0
  0
LINE
  5
131B9A
330
131D0C
100
AcDbEntity
  8
0
 62
     0
100
AcDbLine
 10
108.6062731963554
 20
6.904872625247259
 30
0.0
 11
108.943478223082
 21
7.24207765197384
 31
0.0
  0
LINE
  5
131B9B
330
131D0C
100
AcDbEntity
  8
0
 62
     0
100
AcDbLine
 10
106.5434782230819
 20
5.515596861054
 30
0.0
 11
107.1327539872752
 21
6.104872625247261
 31
0.0
  0
LINE
  5
131B9C
330
131D0C
100
AcDbEntity
  8
0
 62
     0
100
AcDbLine
 10
107.9327539872752
 20
6.904872625247259
 30
0.0
 11
108.7255664872752
 21
7.69768512524726
 31
0.0
  0
LINE
  5
131B9D
330
131D0C
100
AcDbEntity
  8
0
 62
     0
100
AcDbLine
 10
105.259234778195
 20
4.904872625247258
 30
0.0
 11
105.4963324367926
 21
5.141970283844822
 31
0.0
  0
LINE
  5
131B9E
330
131D0C
100
AcDbEntity
  8
0
 62
     0
100
AcDbLine
 10
107.259234778195
 20
6.904872625247258
 30
0.0
 11
108.052047278195
 21
7.69768512524726
 31
0.0
  0
LINE
  5
131B9F
330
131D0C
100
AcDbEntity
  8
0
 62
     0
100
AcDbLine
 10
104.5857155691148
 20
4.904872625247258
 30
0.0
 11
105.3857155691148
 21
5.704872625247261
 31
0.0
  0
LINE
  5
131BA0
330
131D0C
100
AcDbEntity
  8
0
 62
     0
100
AcDbLine
 10
106.5857155691148
 20
6.904872625247258
 30
0.0
 11
107.3785280691148
 21
7.69768512524726
 31
0.0
  0
LINE
  5
131BA1
330
131D0C
100
AcDbEntity
  8
0
 62
     0
100
AcDbLine
 10
103.9121963600346
 20
4.904872625247259
 30
0.0
 11
104.7121963600346
 21
5.70487262524726
 31
0.0
  0
LINE
  5
131BA2
330
131D0C
100
AcDbEntity
  8
0
 62
     0
100
AcDbLine
 10
106.5434782230819
 20
7.536154488294556
 30
0.0
 11
106.7050088600346
 21
7.69768512524726
 31
0.0
  0
LINE
  5
131BA3
330
131D0C
100
AcDbEntity
  8
0
 62
     0
100
AcDbLine
 10
103.2386771509545
 20
4.904872625247259
 30
0.0
 11
104.0386771509544
 21
5.70487262524726
 31
0.0
  0
LINE
  5
131BA4
330
131D0C
100
AcDbEntity
  8
0
 62
     0
100
AcDbLine
 10
102.5651579418743
 20
4.904872625247259
 30
0.0
 11
103.3651579418742
 21
5.70487262524726
 31
0.0
  0
LINE
  5
131BA5
330
131D0C
100
AcDbEntity
  8
0
 62
     0
100
AcDbLine
 10
99.63840706619732
 20
2.651640958650475
 30
0.0
 11
100.6036243395759
 21
3.61685823202907
 31
0.0
  0
LINE
  5
131BA6
330
131D0C
100
AcDbEntity
  8
0
 62
     0
100
AcDbLine
 10
101.8963324367925
 20
4.909566329245713
 30
0.0
 11
102.6916387327941
 21
5.704872625247259
 31
0.0
  0
LINE
  5
131BA7
330
131D0C
100
AcDbEntity
  8
0
 62
     0
100
AcDbLine
 10
98.81811952371393
 20
2.50487262524726
 30
0.0
 11
100.751090604331
 21
4.437843705864384
 31
0.0
  0
LINE
  5
131BA8
330
131D0C
100
AcDbEntity
  8
0
 62
     0
100
AcDbLine
 10
101.8963324367925
 20
5.583085538325898
 30
0.0
 11
102.0181195237139
 21
5.704872625247259
 31
0.0
  0
LINE
  5
131BA9
330
131D0C
100
AcDbEntity
  8
0
 62
     0
100
AcDbLine
 10
98.14460031463374
 20
2.50487262524726
 30
0.0
 11
98.93210031463373
 21
3.29237262524726
 31
0.0
  0
LINE
  5
131BAA
330
131D0C
100
AcDbEntity
  8
0
 62
     0
100
AcDbLine
 10
99.95109060433101
 20
4.311362914944535
 30
0.0
 11
100.751090604331
 21
5.111362914944561
 31
0.0
  0
LINE
  5
131BAB
330
131D0C
100
AcDbEntity
  8
0
 62
     0
100
AcDbLine
 10
97.47108110555354
 20
2.50487262524726
 30
0.0
 11
98.25858110555353
 21
3.29237262524726
 31
0.0
  0
LINE
  5
131BAC
330
131D0C
100
AcDbEntity
  8
0
 62
     0
100
AcDbLine
 10
99.95109060433101
 20
4.984882124024732
 30
0.0
 11
100.751090604331
 21
5.784882124024758
 31
0.0
  0
LINE
  5
131BAD
330
131D0C
100
AcDbEntity
  8
0
 62
     0
100
AcDbLine
 10
96.79756189647337
 20
2.50487262524726
 30
0.0
 11
97.58506189647336
 21
3.29237262524726
 31
0.0
  0
LINE
  5
131BAE
330
131D0C
100
AcDbEntity
  8
0
 62
     0
100
AcDbLine
 10
101.2363118964733
 20
6.943622625247259
 30
0.0
 11
101.727340604331
 21
7.434651333104923
 31
0.0
  0
LINE
  5
131BAF
330
131D0C
100
AcDbEntity
  8
0
 62
     0
100
AcDbLine
 10
99.95109060433101
 20
5.658401333104909
 30
0.0
 11
100.751090604331
 21
6.458401333104935
 31
0.0
  0
LINE
  5
131BB0
330
131D0C
100
AcDbEntity
  8
0
 62
     0
100
AcDbLine
 10
96.12404268739318
 20
2.50487262524726
 30
0.0
 11
96.91154268739317
 21
3.29237262524726
 31
0.0
  0
LINE
  5
131BB1
330
131D0C
100
AcDbEntity
  8
0
 62
     0
100
AcDbLine
 10
99.95109060433101
 20
6.331920542185106
 30
0.0
 11
101.3168551873931
 21
7.697685125247258
 31
0.0
  0
LINE
  5
131BB2
330
131D0C
100
AcDbEntity
  8
0
 62
     0
100
AcDbLine
 10
95.95109060433104
 20
3.005439751265319
 30
0.0
 11
96.23802347831299
 21
3.29237262524726
 31
0.0
  0
LINE
  5
131BB3
330
131D0C
100
AcDbEntity
  8
0
 62
     0
100
AcDbLine
 10
99.889273478313
 20
6.94362262524726
 30
0.0
 11
100.643335978313
 21
7.697685125247258
 31
0.0
  0
LINE
  5
131BB4
330
131D0C
100
AcDbEntity
  8
0
 62
     0
100
AcDbLine
 10
99.21575426923279
 20
6.94362262524726
 30
0.0
 11
99.96981676923278
 21
7.697685125247258
 31
0.0
  0
LINE
  5
131BB5
330
131D0C
100
AcDbEntity
  8
0
 62
     0
100
AcDbLine
 10
98.54223506015262
 20
6.943622625247259
 30
0.0
 11
99.29629756015261
 21
7.697685125247258
 31
0.0
  0
LINE
  5
131BB6
330
131D0C
100
AcDbEntity
  8
0
 62
     0
100
AcDbLine
 10
96.84373997310384
 20
5.918646747278679
 30
0.0
 11
98.85326496406005
 21
7.928171738234899
 31
0.0
  0
LINE
  5
131BB7
330
131D0C
100
AcDbEntity
  8
0
 62
     0
100
AcDbLine
 10
95.97708034656458
 20
5.725506329819599
 30
0.0
 11
97.26719702456669
 21
7.015623007821723
 31
0.0
  0
LINE
  5
131BB8
330
131D0C
100
AcDbEntity
  8
0
 62
     0
100
AcDbLine
 10
97.72607316803679
 20
7.474499151291802
 30
0.0
 11
98.93938933942267
 21
8.687815322677689
 31
0.0
  0
LINE
  5
131BB9
330
131D0C
100
AcDbEntity
  8
0
 62
     0
100
AcDbLine
 10
95.75109060433103
 20
6.173035796666233
 30
0.0
 11
96.07530507216539
 21
6.497250264500606
 31
0.0
  0
LINE
  5
131BBA
330
131D0C
100
AcDbEntity
  8
0
 62
     0
100
AcDbLine
 10
98.2444459113579
 20
8.666391103693106
 30
0.0
 11
98.26587013034249
 21
8.687815322677689
 31
0.0
  0
LINE
  5
131BBB
330
131D0C
100
AcDbEntity
  8
0
 62
     0
100
AcDbLine
 10
88.71045876226386
 20
2.5
 30
0.0
 11
89.13095009212597
 21
2.920491329862116
 31
0.0
  0
LINE
  5
131BBC
330
131D0C
100
AcDbEntity
  8
0
 62
     0
100
AcDbLine
 10
88.03693955318365
 20
2.5
 30
0.0
 11
90.35090437043521
 21
4.813964817251545
 31
0.0
  0
LINE
  5
131BBD
330
131D0C
100
AcDbEntity
  8
0
 62
     0
100
AcDbLine
 10
87.36342034410347
 20
2.5
 30
0.0
 11
90.48541388792042
 21
5.621993543816936
 31
0.0
  0
LINE
  5
131BBE
330
131D0C
100
AcDbEntity
  8
0
 62
     0
100
AcDbLine
 10
86.6899011350233
 20
2.5
 30
0.0
 11
90.44867621555601
 21
6.258775080532708
 31
0.0
  0
LINE
  5
131BBF
330
131D0C
100
AcDbEntity
  8
0
 62
     0
100
AcDbLine
 10
86.01638192594311
 20
2.5
 30
0.0
 11
90.31624366388655
 21
6.799861737943448
 31
0.0
  0
LINE
  5
131BC0
330
131D0C
100
AcDbEntity
  8
0
 62
     0
100
AcDbLine
 10
85.34286271686291
 20
2.5
 30
0.0
 11
90.11478149926686
 21
7.271918782403939
 31
0.0
  0
LINE
  5
131BC1
330
131D0C
100
AcDbEntity
  8
0
 62
     0
100
AcDbLine
 10
84.66934350778274
 20
2.5
 30
0.0
 11
84.98960589015405
 21
2.820262382371311
 31
0.0
  0
LINE
  5
131BC2
330
131D0C
100
AcDbEntity
  8
0
 62
     0
100
AcDbLine
 10
87.19996217061275
 20
5.030618662830011
 30
0.0
 11
89.90600972848662
 21
7.736666220703884
 31
0.0
  0
LINE
  5
131BC3
330
131D0C
100
AcDbEntity
  8
0
 62
     0
100
AcDbLine
 10
83.99582429870255
 20
2.5
 30
0.0
 11
84.6763948111508
 21
3.180570512448253
 31
0.0
  0
LINE
  5
131BC4
330
131D0C
100
AcDbEntity
  8
0
 62
     0
100
AcDbLine
 10
87.2735836741605
 20
5.777759375457939
 30
0.0
 11
89.87571759866758
 21
8.379893299965019
 31
0.0
  0
LINE
  5
131BC5
330
131D0C
100
AcDbEntity
  8
0
 62
     0
100
AcDbLine
 10
83.32230508962236
 20
2.5
 30
0.0
 11
84.36318373214756
 21
3.540878642525195
 31
0.0
  0
LINE
  5
131BC6
330
131D0C
100
AcDbEntity
  8
0
 62
     0
100
AcDbLine
 10
87.11540316189944
 20
6.29309807227707
 30
0.0
 11
91.32230508962237
 21
10.5
 31
0.0
  0
LINE
  5
131BC7
330
131D0C
100
AcDbEntity
  8
0
 62
     0
100
AcDbLine
 10
82.64878588054218
 20
2.5
 30
0.0
 11
84.04997265314431
 21
3.901186772602136
 31
0.0
  0
LINE
  5
131BC8
330
131D0C
100
AcDbEntity
  8
0
 62
     0
100
AcDbLine
 10
86.08524098521145
 20
5.936455104669272
 30
0.0
 11
90.64878588054218
 21
10.5
 31
0.0
  0
LINE
  5
131BC9
330
131D0C
100
AcDbEntity
  8
0
 62
     0
100
AcDbLine
 10
81.97526667146199
 20
2.5
 30
0.0
 11
83.73676157414108
 21
4.261494902679078
 31
0.0
  0
LINE
  5
131BCA
330
131D0C
100
AcDbEntity
  8
0
 62
     0
100
AcDbLine
 10
85.831903108445
 20
6.356636436983007
 30
0.0
 11
89.975266671462
 21
10.5
 31
0.0
  0
LINE
  5
131BCB
330
131D0C
100
AcDbEntity
  8
0
 62
     0
100
AcDbLine
 10
81.3017474623818
 20
2.5
 30
0.0
 11
83.43613670085025
 21
4.634389238468438
 31
0.0
  0
LINE
  5
131BCC
330
131D0C
100
AcDbEntity
  8
0
 62
     0
100
AcDbLine
 10
85.68359964667802
 20
6.881852184296207
 30
0.0
 11
89.30174746238181
 21
10.5
 31
0.0
  0
LINE
  5
131BCD
330
131D0C
100
AcDbEntity
  8
0
 62
     0
100
AcDbLine
 10
80.62822825330162
 20
2.5
 30
0.0
 11
83.18178780625251
 21
5.05355955295089
 31
0.0
  0
LINE
  5
131BCE
330
131D0C
100
AcDbEntity
  8
0
 62
     0
100
AcDbLine
 10
85.71836958055154
 20
7.590141327249913
 30
0.0
 11
88.62822825330162
 21
10.5
 31
0.0
  0
LINE
  5
131BCF
330
131D0C
100
AcDbEntity
  8
0
 62
     0
100
AcDbLine
 10
80.0
 20
2.545290955778564
 30
0.0
 11
82.98058612542121
 21
5.525877081199778
 31
0.0
  0
LINE
  5
131BD0
330
131D0C
100
AcDbEntity
  8
0
 62
     0
100
AcDbLine
 10
87.33270977257324
 20
9.878000728351826
 30
0.0
 11
87.95470904422144
 21
10.5
 31
0.0
  0
LINE
  5
131BD1
330
131D0C
100
AcDbEntity
  8
0
 62
     0
100
AcDbLine
 10
80.0
 20
3.218810164858751
 30
0.0
 11
82.84312114103519
 21
6.061931305893947
 31
0.0
  0
LINE
  5
131BD2
330
131D0C
100
AcDbEntity
  8
0
 62
     0
100
AcDbLine
 10
80.0
 20
3.892329373938938
 30
0.0
 11
82.79102126945447
 21
6.683350643393412
 31
0.0
  0
LINE
  5
131BD3
330
131D0C
100
AcDbEntity
  8
0
 62
     0
100
AcDbLine
 10
80.0
 20
4.565848583019125
 30
0.0
 11
82.87812123210223
 21
7.443969815121361
 31
0.0
  0
LINE
  5
131BD4
330
131D0C
100
AcDbEntity
  8
0
 62
     0
100
AcDbLine
 10
80.0
 20
5.239367792099312
 30
0.0
 11
83.38906227943144
 21
8.628430071530758
 31
0.0
  0
LINE
  5
131BD5
330
131D0C
100
AcDbEntity
  8
0
 62
     0
100
AcDbLine
 10
80.0
 20
5.912887001179499
 30
0.0
 11
84.5871129988205
 21
10.5
 31
0.0
  0
LINE
  5
131BD6
330
131D0C
100
AcDbEntity
  8
0
 62
     0
100
AcDbLine
 10
80.0
 20
6.586406210259686
 30
0.0
 11
83.91359378974032
 21
10.5
 31
0.0
  0
LINE
  5
131BD7
330
131D0C
100
AcDbEntity
  8
0
 62
     0
100
AcDbLine
 10
80.0
 20
7.259925419339873
 30
0.0
 11
83.24007458066011
 21
10.5
 31
0.0
  0
LINE
  5
131BD8
330
131D0C
100
AcDbEntity
  8
0
 62
     0
100
AcDbLine
 10
80.0
 20
7.93344462842006
 30
0.0
 11
82.56655537157994
 21
10.5
 31
0.0
  0
LINE
  5
131BD9
330
131D0C
100
AcDbEntity
  8
0
 62
     0
100
AcDbLine
 10
80.0
 20
8.606963837500238
 30
0.0
 11
81.89303616249977
 21
10.5
 31
0.0
  0
LINE
  5
131BDA
330
131D0C
100
AcDbEntity
  8
0
 62
     0
100
AcDbLine
 10
80.0
 20
9.280483046580425
 30
0.0
 11
81.21951695341957
 21
10.5
 31
0.0
  0
LINE
  5
131BDB
330
131D0C
100
AcDbEntity
  8
0
 62
     0
100
AcDbLine
 10
80.0
 20
9.954002255660611
 30
0.0
 11
80.54599774433938
 21
10.5
 31
0.0
  0
LINE
  5
131BDC
330
131D0C
100
AcDbEntity
  8
0
 62
     0
100
AcDbLine
 10
114.0149844962374
 20
4.904872625247258
 30
0.0
 11
114.8149844962374
 21
5.70487262524726
 31
0.0
  0
LINE
  5
131BDD
330
131D0C
100
AcDbEntity
  8
0
 62
     0
100
AcDbLine
 10
114.6885037053176
 20
4.904872625247258
 30
0.0
 11
115.4885037053176
 21
5.70487262524726
 31
0.0
  0
LINE
  5
131BDE
330
131D0C
100
AcDbEntity
  8
0
 62
     0
100
AcDbLine
 10
116.8415742692542
 20
7.057943189183836
 30
0.0
 11
117.4885037053176
 21
7.704872625247258
 31
0.0
  0
LINE
  5
131BDF
330
131D0C
100
AcDbEntity
  8
0
 62
     0
100
AcDbLine
 10
115.3620229143978
 20
4.904872625247259
 30
0.0
 11
116.1620229143978
 21
5.70487262524726
 31
0.0
  0
LINE
  5
131BE0
330
131D0C
100
AcDbEntity
  8
0
 62
     0
100
AcDbLine
 10
117.3620229143978
 20
6.904872625247258
 30
0.0
 11
118.1620229143978
 21
7.704872625247258
 31
0.0
  0
LINE
  5
131BE1
330
131D0C
100
AcDbEntity
  8
0
 62
     0
100
AcDbLine
 10
116.035542123478
 20
4.904872625247259
 30
0.0
 11
116.4415742692541
 21
5.310904771023413
 31
0.0
  0
LINE
  5
131BE2
330
131D0C
100
AcDbEntity
  8
0
 62
     0
100
AcDbLine
 10
118.035542123478
 20
6.904872625247258
 30
0.0
 11
118.835542123478
 21
7.704872625247259
 31
0.0
  0
LINE
  5
131BE3
330
131D0C
100
AcDbEntity
  8
0
 62
     0
100
AcDbLine
 10
118.4415742692541
 20
6.63738556194323
 30
0.0
 11
119.5090613325582
 21
7.704872625247259
 31
0.0
  0
LINE
  5
131BE4
330
131D0C
100
AcDbEntity
  8
0
 62
     0
100
AcDbLine
 10
118.4415742692541
 20
5.963866352863053
 30
0.0
 11
119.2415742692542
 21
6.763866352863118
 31
0.0
  0
LINE
  5
131BE5
330
131D0C
100
AcDbEntity
  8
0
 62
     0
100
AcDbLine
 10
119.3825805416383
 20
6.904872625247261
 30
0.0
 11
120.1825805416383
 21
7.704872625247259
 31
0.0
  0
LINE
  5
131BE6
330
131D0C
100
AcDbEntity
  8
0
 62
     0
100
AcDbLine
 10
116.4415742692541
 20
3.290347143782861
 30
0.0
 11
116.4560997507186
 21
3.304872625247259
 31
0.0
  0
LINE
  5
131BE7
330
131D0C
100
AcDbEntity
  8
0
 62
     0
100
AcDbLine
 10
120.0560997507186
 20
6.90487262524726
 30
0.0
 11
120.8560997507186
 21
7.704872625247259
 31
0.0
  0
LINE
  5
131BE8
330
131D0C
100
AcDbEntity
  8
0
 62
     0
100
AcDbLine
 10
118.4415742692541
 20
5.290347143782856
 30
0.0
 11
119.2415742692542
 21
6.090347143782913
 31
0.0
  0
LINE
  5
131BE9
330
131D0C
100
AcDbEntity
  8
0
 62
     0
100
AcDbLine
 10
116.4415742692542
 20
2.616827934702696
 30
0.0
 11
117.1296189597987
 21
3.304872625247259
 31
0.0
  0
LINE
  5
131BEA
330
131D0C
100
AcDbEntity
  8
0
 62
     0
100
AcDbLine
 10
120.7296189597987
 20
6.90487262524726
 30
0.0
 11
121.0415742692542
 21
7.216827934702733
 31
0.0
  0
LINE
  5
131BEB
330
131D0C
100
AcDbEntity
  8
0
 62
     0
100
AcDbLine
 10
118.4415742692541
 20
4.616827934702679
 30
0.0
 11
119.2415742692542
 21
5.416827934702728
 31
0.0
  0
LINE
  5
131BEC
330
131D0C
100
AcDbEntity
  8
0
 62
     0
100
AcDbLine
 10
117.0031381688789
 20
2.504872625247258
 30
0.0
 11
117.8031381688789
 21
3.304872625247259
 31
0.0
  0
LINE
  5
131BED
330
131D0C
100
AcDbEntity
  8
0
 62
     0
100
AcDbLine
 10
122.0887189108562
 20
7.590453367224531
 30
0.0
 11
122.2031381688789
 21
7.704872625247259
 31
0.0
  0
LINE
  5
131BEE
330
131D0C
100
AcDbEntity
  8
0
 62
     0
100
AcDbLine
 10
118.4415742692541
 20
3.943308725622482
 30
0.0
 11
119.2415742692542
 21
4.743308725622523
 31
0.0
  0
LINE
  5
131BEF
330
131D0C
100
AcDbEntity
  8
0
 62
     0
100
AcDbLine
 10
117.6766573779591
 20
2.504872625247258
 30
0.0
 11
119.2415742692542
 21
4.069789516542338
 31
0.0
  0
LINE
  5
131BF0
330
131D0C
100
AcDbEntity
  8
0
 62
     0
100
AcDbLine
 10
122.0887189108562
 20
6.916934158144354
 30
0.0
 11
122.8766573779591
 21
7.704872625247259
 31
0.0
  0
LINE
  5
131BF1
330
131D0C
100
AcDbEntity
  8
0
 62
     0
100
AcDbLine
 10
118.3501765870393
 20
2.504872625247258
 30
0.0
 11
119.2415742692542
 21
3.396270307462133
 31
0.0
  0
LINE
  5
131BF2
330
131D0C
100
AcDbEntity
  8
0
 62
     0
100
AcDbLine
 10
122.7501765870393
 20
6.904872625247259
 30
0.0
 11
123.5501765870393
 21
7.704872625247259
 31
0.0
  0
LINE
  5
131BF3
330
131D0C
100
AcDbEntity
  8
0
 62
     0
100
AcDbLine
 10
119.0236957961195
 20
2.504872625247258
 30
0.0
 11
119.8236957961195
 21
3.30487262524726
 31
0.0
  0
LINE
  5
131BF4
330
131D0C
100
AcDbEntity
  8
0
 62
     0
100
AcDbLine
 10
123.4236957961195
 20
6.904872625247259
 30
0.0
 11
124.2236957961195
 21
7.704872625247259
 31
0.0
  0
LINE
  5
131BF5
330
131D0C
100
AcDbEntity
  8
0
 62
     0
100
AcDbLine
 10
119.6972150051996
 20
2.504872625247258
 30
0.0
 11
120.4972150051997
 21
3.30487262524726
 31
0.0
  0
LINE
  5
131BF6
330
131D0C
100
AcDbEntity
  8
0
 62
     0
100
AcDbLine
 10
124.0972150051997
 20
6.904872625247259
 30
0.0
 11
124.8972150051997
 21
7.704872625247259
 31
0.0
  0
LINE
  5
131BF7
330
131D0C
100
AcDbEntity
  8
0
 62
     0
100
AcDbLine
 10
120.3707342142798
 20
2.504872625247258
 30
0.0
 11
121.1707342142799
 21
3.30487262524726
 31
0.0
  0
LINE
  5
131BF8
330
131D0C
100
AcDbEntity
  8
0
 62
     0
100
AcDbLine
 10
124.7707342142798
 20
6.904872625247259
 30
0.0
 11
125.5707342142799
 21
7.704872625247259
 31
0.0
  0
LINE
  5
131BF9
330
131D0C
100
AcDbEntity
  8
0
 62
     0
100
AcDbLine
 10
121.04425342336
 20
2.504872625247258
 30
0.0
 11
121.2415742692542
 21
2.702193471141399
 31
0.0
  0
LINE
  5
131BFA
330
131D0C
100
AcDbEntity
  8
0
 62
     0
100
AcDbLine
 10
125.44425342336
 20
6.904872625247258
 30
0.0
 11
126.24425342336
 21
7.70487262524726
 31
0.0
  0
LINE
  5
131BFB
330
131D0C
100
AcDbEntity
  8
0
 62
     0
100
AcDbLine
 10
122.0887189108562
 20
2.87581890366322
 30
0.0
 11
122.5402899417041
 21
3.327389934511165
 31
0.0
  0
LINE
  5
131BFC
330
131D0C
100
AcDbEntity
  8
0
 62
     0
100
AcDbLine
 10
125.6535394846922
 20
6.44063947749922
 30
0.0
 11
126.4887189108561
 21
7.275818903663173
 31
0.0
  0
LINE
  5
131BFD
330
131D0C
100
AcDbEntity
  8
0
 62
     0
100
AcDbLine
 10
122.4073789211135
 20
2.520959704840372
 30
0.0
 11
123.47495531198
 21
3.58853609570681
 31
0.0
  0
LINE
  5
131BFE
330
131D0C
100
AcDbEntity
  8
0
 62
     0
100
AcDbLine
 10
125.3923933234965
 20
5.505974107223377
 30
0.0
 11
126.4743631075815
 21
6.587943891308319
 31
0.0
  0
LINE
  5
131BFF
330
131D0C
100
AcDbEntity
  8
0
 62
     0
100
AcDbLine
 10
123.2284638670082
 20
2.668525441654828
 30
0.0
 11
126.326797370767
 21
5.766858945413686
 31
0.0
  0
LINE
  5
131C00
330
131D0C
100
AcDbEntity
  8
0
 62
     0
100
AcDbLine
 10
128.5084856133763
 20
7.948547188022943
 30
0.0
 11
128.8529360506006
 21
8.292997625247258
 31
0.0
  0
LINE
  5
131C01
330
131D0C
100
AcDbEntity
  8
0
 62
     0
100
AcDbLine
 10
127.9084856133763
 20
7.348547188022969
 30
0.0
 11
128.0591860506006
 21
7.499247625247259
 31
0.0
  0
LINE
  5
131C02
330
131D0C
100
AcDbEntity
  8
0
 62
     0
100
AcDbLine
 10
124.4526265990782
 20
3.219168964644667
 30
0.0
 11
125.7860828829448
 21
4.55262524851125
 31
0.0
  0
LINE
  5
131C03
330
131D0C
100
AcDbEntity
  8
0
 62
     0
100
AcDbLine
 10
128.1383302596808
 20
6.904872625247259
 30
0.0
 11
129.3084856133763
 21
8.07502797894277
 31
0.0
  0
LINE
  5
131C04
330
131D0C
100
AcDbEntity
  8
0
 62
     0
100
AcDbLine
 10
125.4312216837135
 20
3.524244840199794
 30
0.0
 11
126.0218146061228
 21
4.114837762609144
 31
0.0
  0
LINE
  5
131C05
330
131D0C
100
AcDbEntity
  8
0
 62
     0
100
AcDbLine
 10
128.5084856133763
 20
6.601508769862569
 30
0.0
 11
129.406224468761
 21
7.499247625247257
 31
0.0
  0
LINE
  5
131C06
330
131D0C
100
AcDbEntity
  8
0
 62
     0
100
AcDbLine
 10
125.6669534068916
 20
3.086457354297683
 30
0.0
 11
126.2575463293009
 21
3.677050276707037
 31
0.0
  0
LINE
  5
131C07
330
131D0C
100
AcDbEntity
  8
0
 62
     0
100
AcDbLine
 10
130.3084856133764
 20
7.727989560782462
 30
0.0
 11
130.8853686778411
 21
8.304872625247261
 31
0.0
  0
LINE
  5
131C08
330
131D0C
100
AcDbEntity
  8
0
 62
     0
100
AcDbLine
 10
128.5084856133763
 20
5.927989560782392
 30
0.0
 11
129.3438622262693
 21
6.763366173675384
 31
0.0
  0
LINE
  5
131C09
330
131D0C
100
AcDbEntity
  8
0
 62
     0
100
AcDbLine
 10
129.4853686778411
 20
6.90487262524726
 30
0.0
 11
129.7084856133763
 21
7.127989560782381
 31
0.0
  0
LINE
  5
131C0A
330
131D0C
100
AcDbEntity
  8
0
 62
     0
100
AcDbLine
 10
125.9026851300696
 20
2.648669868395559
 30
0.0
 11
126.493278052479
 21
3.239262790804918
 31
0.0
  0
LINE
  5
131C0B
330
131D0C
100
AcDbEntity
  8
0
 62
     0
100
AcDbLine
 10
131.3084856133762
 20
8.054470351702162
 30
0.0
 11
131.5588878869213
 21
8.304872625247261
 31
0.0
  0
LINE
  5
131C0C
330
131D0C
100
AcDbEntity
  8
0
 62
     0
100
AcDbLine
 10
128.2297417818569
 20
4.975726520182866
 30
0.0
 11
129.4785660680853
 21
6.224550806411241
 31
0.0
  0
LINE
  5
131C0D
330
131D0C
100
AcDbEntity
  8
0
 62
     0
100
AcDbLine
 10
130.3084856133764
 20
7.054470351702264
 30
0.0
 11
130.9084856133763
 21
7.654470351702237
 31
0.0
  0
LINE
  5
131C0E
330
131D0C
100
AcDbEntity
  8
0
 62
     0
100
AcDbLine
 10
126.4396416034034
 20
2.512107132649126
 30
0.0
 11
126.7290097756571
 21
2.801475304902811
 31
0.0
  0
LINE
  5
131C0F
330
131D0C
100
AcDbEntity
  8
0
 62
     0
100
AcDbLine
 10
130.8324070960015
 20
6.90487262524726
 30
0.0
 11
132.1084856133762
 21
8.180951142621987
 31
0.0
  0
LINE
  5
131C10
330
131D0C
100
AcDbEntity
  8
0
 62
     0
100
AcDbLine
 10
127.9410906922511
 20
4.013556221496875
 30
0.0
 11
129.6132699099014
 21
5.685735439147114
 31
0.0
  0
LINE
  5
131C11
330
131D0C
100
AcDbEntity
  8
0
 62
     0
100
AcDbLine
 10
130.3084856133764
 20
6.380951142622087
 30
0.0
 11
130.8258712916261
 21
6.898336820871861
 31
0.0
  0
LINE
  5
131C12
330
131D0C
100
AcDbEntity
  8
0
 62
     0
100
AcDbLine
 10
127.9084856133763
 20
3.307431933541844
 30
0.0
 11
128.2097652675236
 21
3.608711587689146
 31
0.0
  0
LINE
  5
131C13
330
131D0C
100
AcDbEntity
  8
0
 62
     0
100
AcDbLine
 10
131.3084856133763
 20
6.707431933541813
 30
0.0
 11
132.1084856133762
 21
7.50743193354179
 31
0.0
  0
LINE
  5
131C14
330
131D0C
100
AcDbEntity
  8
0
 62
     0
100
AcDbLine
 10
128.5084856133763
 20
3.907431933541801
 30
0.0
 11
129.3084856133763
 21
4.707431933541831
 31
0.0
  0
LINE
  5
131C15
330
131D0C
100
AcDbEntity
  8
0
 62
     0
100
AcDbLine
 10
129.4578457863027
 20
4.856792106468224
 30
0.0
 11
129.7084856133763
 21
5.107431933541825
 31
0.0
  0
LINE
  5
131C16
330
131D0C
100
AcDbEntity
  8
0
 62
     0
100
AcDbLine
 10
128.5084856133763
 20
3.233912724461634
 30
0.0
 11
129.3084856133763
 21
4.033912724461654
 31
0.0
  0
LINE
  5
131C17
330
131D0C
100
AcDbEntity
  8
0
 62
     0
100
AcDbLine
 10
132.1794455141619
 20
6.904872625247259
 30
0.0
 11
132.7738205141619
 21
7.499247625247258
 31
0.0
  0
LINE
  5
131C18
330
131D0C
100
AcDbEntity
  8
0
 62
     0
100
AcDbLine
 10
129.6262255885727
 20
4.351652699658096
 30
0.0
 11
129.7084856133763
 21
4.433912724461664
 31
0.0
  0
LINE
  5
131C19
330
131D0C
100
AcDbEntity
  8
0
 62
     0
100
AcDbLine
 10
131.3084856133763
 20
6.03391272446162
 30
0.0
 11
132.1084856133763
 21
6.833912724461647
 31
0.0
  0
LINE
  5
131C1A
330
131D0C
100
AcDbEntity
  8
0
 62
     0
100
AcDbLine
 10
130.3794455141619
 20
5.104872625247262
 30
0.0
 11
130.9794455141619
 21
5.70487262524726
 31
0.0
  0
LINE
  5
131C1B
330
131D0C
100
AcDbEntity
  8
0
 62
     0
100
AcDbLine
 10
128.5084856133763
 20
2.560393515381446
 30
0.0
 11
129.3084856133763
 21
3.360393515381456
 31
0.0
  0
LINE
  5
131C1C
330
131D0C
100
AcDbEntity
  8
0
 62
     0
100
AcDbLine
 10
132.8529647232421
 20
6.90487262524726
 30
0.0
 11
132.9084856133763
 21
6.960393515381479
 31
0.0
  0
LINE
  5
131C1D
330
131D0C
100
AcDbEntity
  8
0
 62
     0
100
AcDbLine
 10
131.0529647232421
 20
5.104872625247262
 30
0.0
 11
132.1084856133763
 21
6.16039351538145
 31
0.0
  0
LINE
  5
131C1E
330
131D0C
100
AcDbEntity
  8
0
 62
     0
100
AcDbLine
 10
129.1264839323223
 20
2.50487262524726
 30
0.0
 11
129.3084856133763
 21
2.686874306301279
 31
0.0
  0
LINE
  5
131C1F
330
131D0C
100
AcDbEntity
  8
0
 62
     0
100
AcDbLine
 10
133.9792037204667
 20
7.357592413391712
 30
0.0
 11
134.1264839323223
 21
7.50487262524726
 31
0.0
  0
LINE
  5
131C20
330
131D0C
100
AcDbEntity
  8
0
 62
     0
100
AcDbLine
 10
130.7634898160114
 20
4.141878508936416
 30
0.0
 11
132.3264839323223
 21
5.70487262524726
 31
0.0
  0
LINE
  5
131C21
330
131D0C
100
AcDbEntity
  8
0
 62
     0
100
AcDbLine
 10
130.3084856133763
 20
3.013355097221083
 30
0.0
 11
132.1450926245868
 21
4.849962108431593
 31
0.0
  0
LINE
  5
131C22
330
131D0C
100
AcDbEntity
  8
0
 62
     0
100
AcDbLine
 10
134.2000031414025
 20
6.904872625247258
 30
0.0
 11
134.8000031414025
 21
7.50487262524726
 31
0.0
  0
LINE
  5
131C23
330
131D0C
100
AcDbEntity
  8
0
 62
     0
100
AcDbLine
 10
132.4000031414025
 20
5.104872625247262
 30
0.0
 11
132.9084856133763
 21
5.613355097221122
 31
0.0
  0
LINE
  5
131C24
330
131D0C
100
AcDbEntity
  8
0
 62
     0
100
AcDbLine
 10
131.3084856133762
 20
3.339835888140858
 30
0.0
 11
132.4145003082189
 21
4.445850582983477
 31
0.0
  0
LINE
  5
131C25
330
131D0C
100
AcDbEntity
  8
0
 62
     0
100
AcDbLine
 10
134.8735223504826
 20
6.904872625247258
 30
0.0
 11
135.4735223504827
 21
7.50487262524726
 31
0.0
  0
LINE
  5
131C26
330
131D0C
100
AcDbEntity
  8
0
 62
     0
100
AcDbLine
 10
131.3084856133762
 20
2.666316679060661
 30
0.0
 11
132.1084856133763
 21
3.466316679060681
 31
0.0
  0
LINE
  5
131C27
330
131D0C
100
AcDbEntity
  8
0
 62
     0
100
AcDbLine
 10
135.5470415595628
 20
6.904872625247258
 30
0.0
 11
136.1470415595628
 21
7.50487262524726
 31
0.0
  0
LINE
  5
131C28
330
131D0C
100
AcDbEntity
  8
0
 62
     0
100
AcDbLine
 10
132.2039079918509
 20
3.561739057535345
 30
0.0
 11
132.6839079918509
 21
4.041739057535349
 31
0.0
  0
LINE
  5
131C29
330
131D0C
100
AcDbEntity
  8
0
 62
     0
100
AcDbLine
 10
133.9792037204666
 20
5.33703478615106
 30
0.0
 11
134.3470415595628
 21
5.70487262524726
 31
0.0
  0
LINE
  5
131C2A
330
131D0C
100
AcDbEntity
  8
0
 62
     0
100
AcDbLine
 10
131.820560768643
 20
2.50487262524726
 30
0.0
 11
132.1084856133763
 21
2.792797469980504
 31
0.0
  0
LINE
  5
131C2B
330
131D0C
100
AcDbEntity
  8
0
 62
     0
100
AcDbLine
 10
137.0514980142367
 20
7.735809870840924
 30
0.0
 11
137.5839556247261
 21
8.268267481330344
 31
0.0
  0
LINE
  5
131C2C
330
131D0C
100
AcDbEntity
  8
0
 62
     0
100
AcDbLine
 10
132.473315675483
 20
3.157627532087238
 30
0.0
 11
132.9084856133763
 21
3.592797469980567
 31
0.0
  0
LINE
  5
131C2D
330
131D0C
100
AcDbEntity
  8
0
 62
     0
100
AcDbLine
 10
136.220560768643
 20
6.904872625247258
 30
0.0
 11
136.820560768643
 21
7.50487262524726
 31
0.0
  0
LINE
  5
131C2E
330
131D0C
100
AcDbEntity
  8
0
 62
     0
100
AcDbLine
 10
134.420560768643
 20
5.104872625247263
 30
0.0
 11
135.020560768643
 21
5.70487262524726
 31
0.0
  0
LINE
  5
131C2F
330
131D0C
100
AcDbEntity
  8
0
 62
     0
100
AcDbLine
 10
132.7427233591151
 20
2.753516006639117
 30
0.0
 11
132.9084856133763
 21
2.91927826090037
 31
0.0
  0
LINE
  5
131C30
330
131D0C
100
AcDbEntity
  8
0
 62
     0
100
AcDbLine
 10
138.1453244993456
 20
8.15611714686962
 30
0.0
 11
138.4704775645247
 21
8.481270212048759
 31
0.0
  0
LINE
  5
131C31
330
131D0C
100
AcDbEntity
  8
0
 62
     0
100
AcDbLine
 10
134.9792037204667
 20
4.989996367990753
 30
0.0
 11
135.6940799777232
 21
5.70487262524726
 31
0.0
  0
LINE
  5
131C32
330
131D0C
100
AcDbEntity
  8
0
 62
     0
100
AcDbLine
 10
136.8940799777232
 20
6.904872625247258
 30
0.0
 11
137.6676738880803
 21
7.678466535604371
 31
0.0
  0
LINE
  5
131C33
330
131D0C
100
AcDbEntity
  8
0
 62
     0
100
AcDbLine
 10
134.9792037204667
 20
4.316477158910577
 30
0.0
 11
136.3675991868034
 21
5.70487262524726
 31
0.0
  0
LINE
  5
131C34
330
131D0C
100
AcDbEntity
  8
0
 62
     0
100
AcDbLine
 10
138.7439967736049
 20
8.081270212048757
 30
0.0
 11
139.1439967736049
 21
8.481270212048761
 31
0.0
  0
LINE
  5
131C35
330
131D0C
100
AcDbEntity
  8
0
 62
     0
100
AcDbLine
 10
137.2031950603391
 20
6.540468498783005
 30
0.0
 11
138.1675991868034
 21
7.504872625247261
 31
0.0
  0
LINE
  5
131C36
330
131D0C
100
AcDbEntity
  8
0
 62
     0
100
AcDbLine
 10
133.9792037204666
 20
2.642957949830329
 30
0.0
 11
134.4930503813698
 21
3.156804610733483
 31
0.0
  0
LINE
  5
131C37
330
131D0C
100
AcDbEntity
  8
0
 62
     0
100
AcDbLine
 10
138.2411183958836
 20
6.904872625247259
 30
0.0
 11
138.8411183958836
 21
7.50487262524726
 31
0.0
  0
LINE
  5
131C38
330
131D0C
100
AcDbEntity
  8
0
 62
     0
100
AcDbLine
 10
134.9792037204667
 20
3.64295794983038
 30
0.0
 11
135.7792037204667
 21
4.442957949830334
 31
0.0
  0
LINE
  5
131C39
330
131D0C
100
AcDbEntity
  8
0
 62
     0
100
AcDbLine
 10
137.2790435833904
 20
5.942797812754054
 30
0.0
 11
137.8351104147887
 21
6.498864644152432
 31
0.0
  0
LINE
  5
131C3A
330
131D0C
100
AcDbEntity
  8
0
 62
     0
100
AcDbLine
 10
136.4411183958836
 20
5.104872625247262
 30
0.0
 11
136.7792037204667
 21
5.442957949830326
 31
0.0
  0
LINE
  5
131C3B
330
131D0C
100
AcDbEntity
  8
0
 62
     0
100
AcDbLine
 10
134.5818565402292
 20
2.572091560512712
 30
0.0
 11
135.7792037204667
 21
3.769438740750156
 31
0.0
  0
LINE
  5
131C3C
330
131D0C
100
AcDbEntity
  8
0
 62
     0
100
AcDbLine
 10
138.9146376049638
 20
6.904872625247259
 30
0.0
 11
138.9792037204667
 21
6.969438740750198
 31
0.0
  0
LINE
  5
131C3D
330
131D0C
100
AcDbEntity
  8
0
 62
     0
100
AcDbLine
 10
137.3784614475079
 20
5.368696467791434
 30
0.0
 11
137.918828678143
 21
5.909063698426483
 31
0.0
  0
LINE
  5
131C3E
330
131D0C
100
AcDbEntity
  8
0
 62
     0
100
AcDbLine
 10
135.339975094079
 20
2.65669090528232
 30
0.0
 11
136.308432820333
 21
3.625148631536293
 31
0.0
  0
LINE
  5
131C3F
330
131D0C
100
AcDbEntity
  8
0
 62
     0
100
AcDbLine
 10
139.6773009113262
 20
6.994016722529555
 30
0.0
 11
140.2990293650581
 21
7.615745176261413
 31
0.0
  0
LINE
  5
131C40
330
131D0C
100
AcDbEntity
  8
0
 62
     0
100
AcDbLine
 10
137.5386157598868
 20
4.855331571090109
 30
0.0
 11
138.0292281937106
 21
5.345944004913948
 31
0.0
  0
LINE
  5
131C41
330
131D0C
100
AcDbEntity
  8
0
 62
     0
100
AcDbLine
 10
136.4885639082225
 20
3.131760510345651
 30
0.0
 11
136.7792037204666
 21
3.422400322589725
 31
0.0
  0
LINE
  5
131C42
330
131D0C
100
AcDbEntity
  8
0
 62
     0
100
AcDbLine
 10
140.3816224590809
 20
7.02481906120404
 30
0.0
 11
141.3709787827026
 21
8.014175384825724
 31
0.0
  0
LINE
  5
131C43
330
131D0C
100
AcDbEntity
  8
0
 62
     0
100
AcDbLine
 10
137.7447993140339
 20
4.387995916156995
 30
0.0
 11
138.2035931800745
 21
4.846789782197605
 31
0.0
  0
LINE
  5
131C44
330
131D0C
100
AcDbEntity
  8
0
 62
     0
100
AcDbLine
 10
137.9913875427219
 20
3.961064935764825
 30
0.0
 11
138.4196057977518
 21
4.389283190794718
 31
0.0
  0
LINE
  5
131C45
330
131D0C
100
AcDbEntity
  8
0
 62
     0
100
AcDbLine
 10
141.3933031373536
 20
7.362980530396519
 30
0.0
 11
142.3351952322043
 21
8.304872625247261
 31
0.0
  0
LINE
  5
131C46
330
131D0C
100
AcDbEntity
  8
0
 62
     0
100
AcDbLine
 10
140.6773009113263
 20
6.646978304369228
 30
0.0
 11
140.7351952322043
 21
6.704872625247263
 31
0.0
  0
LINE
  5
131C47
330
131D0C
100
AcDbEntity
  8
0
 62
     0
100
AcDbLine
 10
138.2719950930378
 20
3.568153277000536
 30
0.0
 11
138.6728505528854
 21
3.969008736848205
 31
0.0
  0
LINE
  5
131C48
330
131D0C
100
AcDbEntity
  8
0
 62
     0
100
AcDbLine
 10
142.3724579529519
 20
7.668616136914644
 30
0.0
 11
142.8099015865702
 21
8.106059770533013
 31
0.0
  0
LINE
  5
131C49
330
131D0C
100
AcDbEntity
  8
0
 62
     0
100
AcDbLine
 10
139.6773009113263
 20
4.973459095289046
 30
0.0
 11
140.0087144412845
 21
5.304872625247261
 31
0.0
  0
LINE
  5
131C4A
330
131D0C
100
AcDbEntity
  8
0
 62
     0
100
AcDbLine
 10
140.8087144412846
 20
6.104872625247264
 30
0.0
 11
141.4087144412845
 21
6.704872625247263
 31
0.0
  0
LINE
  5
131C4B
330
131D0C
100
AcDbEntity
  8
0
 62
     0
100
AcDbLine
 10
138.5409995166668
 20
3.163638491549347
 30
0.0
 11
138.9606364961812
 21
3.583275471063759
 31
0.0
  0
LINE
  5
131C4C
330
131D0C
100
AcDbEntity
  8
0
 62
     0
100
AcDbLine
 10
142.810306880992
 20
7.432945855874548
 30
0.0
 11
143.261538798465
 21
7.884177773347608
 31
0.0
  0
LINE
  5
131C4D
330
131D0C
100
AcDbEntity
  8
0
 62
     0
100
AcDbLine
 10
140.0822336503647
 20
4.704872625247263
 30
0.0
 11
140.6822336503647
 21
5.304872625247261
 31
0.0
  0
LINE
  5
131C4E
330
131D0C
100
AcDbEntity
  8
0
 62
     0
100
AcDbLine
 10
141.4822336503647
 20
6.104872625247264
 30
0.0
 11
142.0822336503647
 21
6.704872625247263
 31
0.0
  0
LINE
  5
131C4F
330
131D0C
100
AcDbEntity
  8
0
 62
     0
100
AcDbLine
 10
138.8100039402958
 20
2.759123706098145
 30
0.0
 11
138.9792037204667
 21
2.928323486269082
 31
0.0
  0
LINE
  5
131C50
330
131D0C
100
AcDbEntity
  8
0
 62
     0
100
AcDbLine
 10
143.2826606746478
 20
7.231780440450174
 30
0.0
 11
143.7522215970782
 21
7.701341362880582
 31
0.0
  0
LINE
  5
131C51
330
131D0C
100
AcDbEntity
  8
0
 62
     0
100
AcDbLine
 10
140.6478814307817
 20
4.597001196584128
 30
0.0
 11
141.3557528594449
 21
5.304872625247261
 31
0.0
  0
LINE
  5
131C52
330
131D0C
100
AcDbEntity
  8
0
 62
     0
100
AcDbLine
 10
142.1557528594449
 20
6.104872625247264
 30
0.0
 11
142.7557528594449
 21
6.704872625247263
 31
0.0
  0
LINE
  5
131C53
330
131D0C
100
AcDbEntity
  8
0
 62
     0
100
AcDbLine
 10
140.3953117273767
 20
3.670912284098904
 30
0.0
 11
142.029272068525
 21
5.304872625247261
 31
0.0
  0
LINE
  5
131C54
330
131D0C
100
AcDbEntity
  8
0
 62
     0
100
AcDbLine
 10
143.7936555433591
 20
7.069256100081331
 30
0.0
 11
144.28790640817
 21
7.563506964892217
 31
0.0
  0
LINE
  5
131C55
330
131D0C
100
AcDbEntity
  8
0
 62
     0
100
AcDbLine
 10
142.8292720685251
 20
6.104872625247264
 30
0.0
 11
143.4292720685251
 21
6.704872625247263
 31
0.0
  0
LINE
  5
131C56
330
131D0C
100
AcDbEntity
  8
0
 62
     0
100
AcDbLine
 10
140.1427420239717
 20
2.744823371613653
 30
0.0
 11
141.2688041225665
 21
3.870885470208557
 31
0.0
  0
LINE
  5
131C57
330
131D0C
100
AcDbEntity
  8
0
 62
     0
100
AcDbLine
 10
144.3496524038468
 20
6.951733751488859
 30
0.0
 11
144.6773009113262
 21
7.279382258968236
 31
0.0
  0
LINE
  5
131C58
330
131D0C
100
AcDbEntity
  8
0
 62
     0
100
AcDbLine
 10
142.1027912776052
 20
4.704872625247262
 30
0.0
 11
142.7027912776052
 21
5.304872625247261
 31
0.0
  0
LINE
  5
131C59
330
131D0C
100
AcDbEntity
  8
0
 62
     0
100
AcDbLine
 10
143.5027912776053
 20
6.104872625247264
 30
0.0
 11
143.6773009113262
 21
6.279382258968229
 31
0.0
  0
LINE
  5
131C5A
330
131D0C
100
AcDbEntity
  8
0
 62
     0
100
AcDbLine
 10
140.5763104866854
 20
2.504872625247262
 30
0.0
 11
141.1763104866854
 21
3.104872625247262
 31
0.0
  0
LINE
  5
131C5B
330
131D0C
100
AcDbEntity
  8
0
 62
     0
100
AcDbLine
 10
145.9008732321273
 20
7.829435370689115
 30
0.0
 11
146.3763104866854
 21
8.304872625247261
 31
0.0
  0
LINE
  5
131C5C
330
131D0C
100
AcDbEntity
  8
0
 62
     0
100
AcDbLine
 10
142.7763104866854
 20
4.704872625247262
 30
0.0
 11
143.3763104866854
 21
5.304872625247261
 31
0.0
  0
LINE
  5
131C5D
330
131D0C
100
AcDbEntity
  8
0
 62
     0
100
AcDbLine
 10
145.3008732321273
 20
7.229435370689139
 30
0.0
 11
145.5763104866854
 21
7.50487262524726
 31
0.0
  0
LINE
  5
131C5E
330
131D0C
100
AcDbEntity
  8
0
 62
     0
100
AcDbLine
 10
141.2498296957656
 20
2.504872625247262
 30
0.0
 11
141.8498296957656
 21
3.104872625247262
 31
0.0
  0
LINE
  5
131C5F
330
131D0C
100
AcDbEntity
  8
0
 62
     0
100
AcDbLine
 10
145.6498296957656
 20
6.904872625247258
 30
0.0
 11
146.7008732321272
 21
7.955916161608861
 31
0.0
  0
LINE
  5
131C60
330
131D0C
100
AcDbEntity
  8
0
 62
     0
100
AcDbLine
 10
143.4498296957656
 20
4.704872625247262
 30
0.0
 11
144.0498296957656
 21
5.304872625247261
 31
0.0
  0
LINE
  5
131C61
330
131D0C
100
AcDbEntity
  8
0
 62
     0
100
AcDbLine
 10
141.9233489048458
 20
2.504872625247262
 30
0.0
 11
142.5233489048458
 21
3.104872625247262
 31
0.0
  0
LINE
  5
131C62
330
131D0C
100
AcDbEntity
  8
0
 62
     0
100
AcDbLine
 10
146.3233489048458
 20
6.904872625247258
 30
0.0
 11
146.9233489048458
 21
7.50487262524726
 31
0.0
  0
LINE
  5
131C63
330
131D0C
100
AcDbEntity
  8
0
 62
     0
100
AcDbLine
 10
144.1233489048458
 20
4.704872625247263
 30
0.0
 11
144.6773009113263
 21
5.258824631727741
 31
0.0
  0
LINE
  5
131C64
330
131D0C
100
AcDbEntity
  8
0
 62
     0
100
AcDbLine
 10
142.596868113926
 20
2.504872625247262
 30
0.0
 11
143.796868113926
 21
3.704872625247261
 31
0.0
  0
LINE
  5
131C65
330
131D0C
100
AcDbEntity
  8
0
 62
     0
100
AcDbLine
 10
146.8090032556446
 20
6.717007766965835
 30
0.0
 11
147.4822802388634
 21
7.390284750184669
 31
0.0
  0
LINE
  5
131C66
330
131D0C
100
AcDbEntity
  8
0
 62
     0
100
AcDbLine
 10
143.2703873230062
 20
2.504872625247262
 30
0.0
 11
144.3255725142463
 21
3.560057816487318
 31
0.0
  0
LINE
  5
131C67
330
131D0C
100
AcDbEntity
  8
0
 62
     0
100
AcDbLine
 10
148.5008732321273
 20
7.735358534368335
 30
0.0
 11
149.0703873230062
 21
8.304872625247261
 31
0.0
  0
LINE
  5
131C68
330
131D0C
100
AcDbEntity
  8
0
 62
     0
100
AcDbLine
 10
145.3008732321273
 20
4.535358534368397
 30
0.0
 11
147.0688580915982
 21
6.303343393839274
 31
0.0
  0
LINE
  5
131C69
330
131D0C
100
AcDbEntity
  8
0
 62
     0
100
AcDbLine
 10
144.0439523165163
 20
2.604918409677202
 30
0.0
 11
144.4939523165163
 21
3.054918409677181
 31
0.0
  0
LINE
  5
131C6A
330
131D0C
100
AcDbEntity
  8
0
 62
     0
100
AcDbLine
 10
148.5008732321273
 20
7.061839325288138
 30
0.0
 11
149.3008732321273
 21
7.861839325288139
 31
0.0
  0
LINE
  5
131C6B
330
131D0C
100
AcDbEntity
  8
0
 62
     0
100
AcDbLine
 10
145.3008732321273
 20
3.8618393252882
 30
0.0
 11
146.7008732321272
 21
5.261839325288129
 31
0.0
  0
LINE
  5
131C6C
330
131D0C
100
AcDbEntity
  8
0
 62
     0
100
AcDbLine
 10
147.7008732321273
 20
6.261839325288185
 30
0.0
 11
148.1439065320864
 21
6.704872625247261
 31
0.0
  0
LINE
  5
131C6D
330
131D0C
100
AcDbEntity
  8
0
 62
     0
100
AcDbLine
 10
146.9027690446017
 20
5.463735137762594
 30
0.0
 11
147.287105919982
 21
5.848072013142841
 31
0.0
  0
LINE
  5
131C6E
330
131D0C
100
AcDbEntity
  8
0
 62
     0
100
AcDbLine
 10
144.6174257411666
 20
2.504872625247262
 30
0.0
 11
144.6623321187864
 21
2.549779002867059
 31
0.0
  0
LINE
  5
131C6F
330
131D0C
100
AcDbEntity
  8
0
 62
     0
100
AcDbLine
 10
148.2174257411666
 20
6.104872625247261
 30
0.0
 11
149.3008732321273
 21
7.188320116207962
 31
0.0
  0
LINE
  5
131C70
330
131D0C
100
AcDbEntity
  8
0
 62
     0
100
AcDbLine
 10
145.9008732321273
 20
3.788320116208004
 30
0.0
 11
146.7008732321272
 21
4.588320116207959
 31
0.0
  0
LINE
  5
131C71
330
131D0C
100
AcDbEntity
  8
0
 62
     0
100
AcDbLine
 10
147.3237185502768
 20
5.211165434357524
 30
0.0
 11
147.5008732321273
 21
5.388320116208019
 31
0.0
  0
LINE
  5
131C72
330
131D0C
100
AcDbEntity
  8
0
 62
     0
100
AcDbLine
 10
145.9008732321273
 20
3.114800907127817
 30
0.0
 11
146.7008732321273
 21
3.914800907127768
 31
0.0
  0
LINE
  5
131C73
330
131D0C
100
AcDbEntity
  8
0
 62
     0
100
AcDbLine
 10
148.5008732321273
 20
5.714800907127763
 30
0.0
 11
149.4909449502468
 21
6.704872625247261
 31
0.0
  0
LINE
  5
131C74
330
131D0C
100
AcDbEntity
  8
0
 62
     0
100
AcDbLine
 10
145.9644641593269
 20
2.50487262524726
 30
0.0
 11
146.7008732321273
 21
3.241281698047597
 31
0.0
  0
LINE
  5
131C75
330
131D0C
100
AcDbEntity
  8
0
 62
     0
100
AcDbLine
 10
149.564464159327
 20
6.104872625247263
 30
0.0
 11
150.0959433725612
 21
6.636351838481574
 31
0.0
  0
LINE
  5
131C76
330
131D0C
100
AcDbEntity
  8
0
 62
     0
100
AcDbLine
 10
148.5008732321273
 20
5.041281698047586
 30
0.0
 11
149.3008732321272
 21
5.841281698047541
 31
0.0
  0
LINE
  5
131C77
330
131D0C
100
AcDbEntity
  8
0
 62
     0
100
AcDbLine
 10
146.6379833684071
 20
2.50487262524726
 30
0.0
 11
146.7008732321273
 21
2.567762488967427
 31
0.0
  0
LINE
  5
131C78
330
131D0C
100
AcDbEntity
  8
0
 62
     0
100
AcDbLine
 10
148.5008732321273
 20
4.367762488967409
 30
0.0
 11
149.3008732321272
 21
5.167762488967376
 31
0.0
  0
LINE
  5
131C79
330
131D0C
100
AcDbEntity
  8
0
 62
     0
100
AcDbLine
 10
147.7008732321272
 20
2.894243279887201
 30
0.0
 11
147.9115025774873
 21
3.10487262524726
 31
0.0
  0
LINE
  5
131C7A
330
131D0C
100
AcDbEntity
  8
0
 62
     0
100
AcDbLine
 10
148.5008732321273
 20
3.694243279887212
 30
0.0
 11
149.3008732321272
 21
4.494243279887192
 31
0.0
  0
LINE
  5
131C7B
330
131D0C
100
AcDbEntity
  8
0
 62
     0
100
AcDbLine
 10
147.9850217865675
 20
2.50487262524726
 30
0.0
 11
149.3008732321273
 21
3.820724070807028
 31
0.0
  0
LINE
  5
131C7C
330
131D0C
100
AcDbEntity
  8
0
 62
     0
100
AcDbLine
 10
148.6585409956477
 20
2.50487262524726
 30
0.0
 11
149.3008732321273
 21
3.147204861726843
 31
0.0
  0
LINE
  5
131C7D
330
131D0C
100
AcDbEntity
  8
0
 62
     0
100
AcDbLine
 10
149.3320602047279
 20
2.50487262524726
 30
0.0
 11
149.9320602047279
 21
3.10487262524726
 31
0.0
  0
LINE
  5
131C7E
330
131D0C
100
AcDbEntity
  8
0
 62
     0
100
AcDbLine
 10
150.0055794138081
 20
2.50487262524726
 30
0.0
 11
150.1008732321272
 21
2.600166443566465
 31
0.0
  0
ENDBLK
  5
131C7F
330
131D0C
100
AcDbEntity
  8
0
100
AcDbBlockEnd
  0
BLOCK
  5
140B95
330
140B89
100
AcDbEntity
  8
0
100
AcDbBlockBegin
  2
*D3
 70
     1
 10
0.0
 20
0.0
 30
0.0
  3
*D3
  1

  0
LINE
  5
140C6E
330
140B89
100
AcDbEntity
  8
0
 62
     5
370
    -2
100
AcDbLine
 10
61.67669590136867
 20
152.4043298520985
 30
0.0
 11
58.25354568866558
 21
152.4043298520985
 31
0.0
  0
LINE
  5
140C6F
330
140B89
100
AcDbEntity
  8
0
 62
     5
370
    -2
100
AcDbLine
 10
61.67669590136867
 20
155.5043298520985
 30
0.0
 11
58.25354568866558
 21
155.5043298520985
 31
0.0
  0
LINE
  5
140C70
330
140B89
100
AcDbEntity
  8
0
 62
     5
370
    -2
100
AcDbLine
 10
59.25354568866558
 20
149.9043298520985
 30
0.0
 11
59.25354568866558
 21
147.4043298520985
 31
0.0
  0
LINE
  5
140C71
330
140B89
100
AcDbEntity
  8
0
 62
     5
370
    -2
100
AcDbLine
 10
59.25354568866558
 20
158.0043298520985
 30
0.0
 11
59.25354568866558
 21
160.5043298520985
 31
0.0
  0
LINE
  5
140C72
330
140B89
100
AcDbEntity
  8
0
 62
     5
370
    -2
100
AcDbLine
 10
59.25354568866558
 20
152.4043298520985
 30
0.0
 11
59.25354568866558
 21
155.5043298520985
 31
0.0
  0
SOLID
  5
140C73
330
140B89
100
AcDbEntity
  8
0
 62
     5
100
AcDbTrace
 10
58.83687902199891
 20
149.9043298520985
 30
0.0
 11
59.67021235533224
 21
149.9043298520985
 31
0.0
 12
59.25354568866558
 22
152.4043298520985
 32
0.0
 13
59.25354568866558
 23
152.4043298520985
 33
0.0
  0
SOLID
  5
140C74
330
140B89
100
AcDbEntity
  8
0
 62
     5
100
AcDbTrace
 10
58.83687902199891
 20
158.0043298520985
 30
0.0
 11
59.67021235533224
 21
158.0043298520985
 31
0.0
 12
59.25354568866558
 22
155.5043298520985
 32
0.0
 13
59.25354568866558
 23
155.5043298520985
 33
0.0
  0
MTEXT
  5
140C75
330
140B89
100
AcDbEntity
  8
0
 62
     0
100
AcDbMText
 10
56.75354568866556
 20
153.9543298520985
 30
0.0
 40
3.0
 41
0.0
 46
0.0
 71
     5
 72
     1
  1
\A1;3.1
  7
EXTFONT
 11
0.0000000000000001
 21
1.0
 31
0.0
 73
     1
 44
1.0
  0
POINT
  5
140C76
330
140B89
100
AcDbEntity
  8
DEFPOINTS
 62
     0
100
AcDbPoint
 10
62.67669590136867
 20
152.4043298520985
 30
0.0
  0
POINT
  5
140C77
330
140B89
100
AcDbEntity
  8
DEFPOINTS
 62
     0
100
AcDbPoint
 10
62.67669590136867
 20
155.5043298520985
 30
0.0
  0
POINT
  5
140C78
330
140B89
100
AcDbEntity
  8
DEFPOINTS
 62
     0
100
AcDbPoint
 10
59.25354568866558
 20
155.5043298520985
 30
0.0
  0
ENDBLK
  5
140B96
330
140B89
100
AcDbEntity
  8
0
100
AcDbBlockEnd
  0
BLOCK
  5
140D47
330
140D3D
100
AcDbEntity
  8
0
100
AcDbBlockBegin
  2
*D4
 70
     1
 10
0.0
 20
0.0
 30
0.0
  3
*D4
  1

  0
LINE
  5
140E0D
330
140D3D
100
AcDbEntity
  8
L_1
 62
     5
370
    -2
100
AcDbLine
 10
161.6479001819916
 20
154.9543298520985
 30
0.0
 11
161.6479001819916
 21
186.2514381026666
 31
0.0
  0
LINE
  5
140E0E
330
140D3D
100
AcDbEntity
  8
L_1
 62
     5
370
    -2
100
AcDbLine
 10
190.6479001819916
 20
154.9543298520985
 30
0.0
 11
190.6479001819916
 21
186.2514381026666
 31
0.0
  0
LINE
  5
140E0F
330
140D3D
100
AcDbEntity
  8
L_1
 62
     5
370
    -2
100
AcDbLine
 10
164.1479001819916
 20
185.2514381026666
 30
0.0
 11
188.1479001819916
 21
185.2514381026666
 31
0.0
  0
SOLID
  5
140E10
330
140D3D
100
AcDbEntity
  8
L_1
 62
     5
100
AcDbTrace
 10
164.1479001819916
 20
185.6681047693333
 30
0.0
 11
164.1479001819916
 21
184.834771436
 31
0.0
 12
161.6479001819916
 22
185.2514381026666
 32
0.0
 13
161.6479001819916
 23
185.2514381026666
 33
0.0
  0
SOLID
  5
140E11
330
140D3D
100
AcDbEntity
  8
L_1
 62
     5
100
AcDbTrace
 10
188.1479001819916
 20
185.6681047693333
 30
0.0
 11
188.1479001819916
 21
184.834771436
 31
0.0
 12
190.6479001819916
 22
185.2514381026666
 32
0.0
 13
190.6479001819916
 23
185.2514381026666
 33
0.0
  0
MTEXT
  5
140E12
330
140D3D
100
AcDbEntity
  8
L_1
 62
     0
100
AcDbMText
 10
176.1479001819916
 20
187.7514381026666
 30
0.0
 40
3.0
 41
0.0
 46
0.0
 71
     5
 72
     1
  1
\A1;%%c29
  7
EXTFONT
 73
     1
 44
1.0
  0
POINT
  5
140E13
330
140D3D
100
AcDbEntity
  8
DEFPOINTS
 62
     0
100
AcDbPoint
 10
161.6479001819916
 20
153.9543298520985
 30
0.0
  0
POINT
  5
140E14
330
140D3D
100
AcDbEntity
  8
DEFPOINTS
 62
     0
100
AcDbPoint
 10
190.6479001819916
 20
153.9543298520985
 30
0.0
  0
POINT
  5
140E15
330
140D3D
100
AcDbEntity
  8
DEFPOINTS
 62
     0
100
AcDbPoint
 10
190.6479001819916
 20
185.2514381026666
 30
0.0
  0
ENDBLK
  5
140D48
330
140D3D
100
AcDbEntity
  8
0
100
AcDbBlockEnd
  0
BLOCK
  5
140D93
330
140D89
100
AcDbEntity
  8
0
100
AcDbBlockBegin
  2
*D5
 70
     1
 10
0.0
 20
0.0
 30
0.0
  3
*D5
  1

  0
LINE
  5
140D8A
330
140D89
100
AcDbEntity
  8
L_1
 62
     5
370
    -2
100
AcDbLine
 10
62.67669590136869
 20
147.9543298520985
 30
0.0
 11
62.67669590136869
 21
133.7146579609054
 31
0.0
  0
LINE
  5
140D8B
330
140D89
100
AcDbEntity
  8
L_1
 62
     5
370
    -2
100
AcDbLine
 10
70.67669590136867
 20
151.4043298520985
 30
0.0
 11
70.67669590136867
 21
133.7146579609054
 31
0.0
  0
LINE
  5
140D8C
330
140D89
100
AcDbEntity
  8
L_1
 62
     5
370
    -2
100
AcDbLine
 10
65.1766959013687
 20
134.7146579609054
 30
0.0
 11
68.17669590136867
 21
134.7146579609054
 31
0.0
  0
SOLID
  5
140D8D
330
140D89
100
AcDbEntity
  8
L_1
 62
     5
100
AcDbTrace
 10
65.1766959013687
 20
135.1313246275721
 30
0.0
 11
65.1766959013687
 21
134.2979912942388
 31
0.0
 12
62.67669590136869
 22
134.7146579609054
 32
0.0
 13
62.67669590136869
 23
134.7146579609054
 33
0.0
  0
SOLID
  5
140D8E
330
140D89
100
AcDbEntity
  8
L_1
 62
     5
100
AcDbTrace
 10
68.17669590136867
 20
135.1313246275721
 30
0.0
 11
68.17669590136867
 21
134.2979912942388
 31
0.0
 12
70.67669590136867
 22
134.7146579609054
 32
0.0
 13
70.67669590136867
 23
134.7146579609054
 33
0.0
  0
MTEXT
  5
140D8F
330
140D89
100
AcDbEntity
  8
L_1
 62
     0
100
AcDbMText
 10
66.67669590136869
 20
137.2146579609054
 30
0.0
 40
3.0
 41
0.0
 46
0.0
 71
     5
 72
     1
  1
\A1;8
  7
EXTFONT
 73
     1
 44
1.0
  0
POINT
  5
140D90
330
140D89
100
AcDbEntity
  8
DEFPOINTS
 62
     0
100
AcDbPoint
 10
62.67669590136869
 20
148.9543298520985
 30
0.0
  0
POINT
  5
140D91
330
140D89
100
AcDbEntity
  8
DEFPOINTS
 62
     0
100
AcDbPoint
 10
70.67669590136867
 20
152.4043298520985
 30
0.0
  0
POINT
  5
140D92
330
140D89
100
AcDbEntity
  8
DEFPOINTS
 62
     0
100
AcDbPoint
 10
70.67669590136867
 20
134.7146579609054
 30
0.0
  0
ENDBLK
  5
140D94
330
140D89
100
AcDbEntity
  8
0
100
AcDbBlockEnd
  0
BLOCK
  5
140DA2
330
140D98
100
AcDbEntity
  8
0
100
AcDbBlockBegin
  2
*D6
 70
     1
 10
0.0
 20
0.0
 30
0.0
  3
*D6
  1

  0
LINE
  5
140DA7
330
140D98
100
AcDbEntity
  8
L_1
 62
     5
370
    -2
100
AcDbLine
 10
62.67669590136867
 20
159.9543298520985
 30
0.0
 11
62.67669590136867
 21
171.0784947376751
 31
0.0
  0
LINE
  5
140DA8
330
140D98
100
AcDbEntity
  8
L_1
 62
     5
370
    -2
100
AcDbLine
 10
72.67669590136867
 20
166.1543298520985
 30
0.0
 11
72.67669590136867
 21
171.0784947376751
 31
0.0
  0
LINE
  5
140DA9
330
140D98
100
AcDbEntity
  8
L_1
 62
     5
370
    -2
100
AcDbLine
 10
60.17669590136867
 20
170.0784947376751
 30
0.0
 11
57.67669590136867
 21
170.0784947376751
 31
0.0
  0
LINE
  5
140DAA
330
140D98
100
AcDbEntity
  8
L_1
 62
     5
370
    -2
100
AcDbLine
 10
75.17669590136867
 20
170.0784947376751
 30
0.0
 11
77.67669590136867
 21
170.0784947376751
 31
0.0
  0
LINE
  5
140DAB
330
140D98
100
AcDbEntity
  8
L_1
 62
     5
370
    -2
100
AcDbLine
 10
62.67669590136867
 20
170.0784947376751
 30
0.0
 11
72.67669590136867
 21
170.0784947376751
 31
0.0
  0
SOLID
  5
140DAC
330
140D98
100
AcDbEntity
  8
L_1
 62
     5
100
AcDbTrace
 10
60.17669590136867
 20
170.4951614043418
 30
0.0
 11
60.17669590136867
 21
169.6618280710085
 31
0.0
 12
62.67669590136867
 22
170.0784947376751
 32
0.0
 13
62.67669590136867
 23
170.0784947376751
 33
0.0
  0
SOLID
  5
140DAD
330
140D98
100
AcDbEntity
  8
L_1
 62
     5
100
AcDbTrace
 10
75.17669590136867
 20
170.4951614043418
 30
0.0
 11
75.17669590136867
 21
169.6618280710085
 31
0.0
 12
72.67669590136867
 22
170.0784947376751
 32
0.0
 13
72.67669590136867
 23
170.0784947376751
 33
0.0
  0
MTEXT
  5
140DAE
330
140D98
100
AcDbEntity
  8
L_1
 62
     0
100
AcDbMText
 10
67.67669590136867
 20
173.3642090233894
 30
0.0
 40
3.0
 41
0.0
 46
0.0
 71
     5
 72
     1
  1
\A1;(10)
  7
EXTFONT
 73
     1
 44
1.0
  0
POINT
  5
140DAF
330
140D98
100
AcDbEntity
  8
DEFPOINTS
 62
     0
100
AcDbPoint
 10
62.67669590136867
 20
158.9543298520985
 30
0.0
  0
POINT
  5
140DB0
330
140D98
100
AcDbEntity
  8
DEFPOINTS
 62
     0
100
AcDbPoint
 10
72.67669590136867
 20
165.1543298520985
 30
0.0
  0
POINT
  5
140DB1
330
140D98
100
AcDbEntity
  8
DEFPOINTS
 62
     0
100
AcDbPoint
 10
72.67669590136867
 20
170.0784947376751
 30
0.0
  0
ENDBLK
  5
140DA3
330
140D98
100
AcDbEntity
  8
0
100
AcDbBlockEnd
  0
BLOCK
  5
140DBF
330
140DB5
100
AcDbEntity
  8
0
100
AcDbBlockBegin
  2
*D7
 70
     1
 10
0.0
 20
0.0
 30
0.0
  3
*D7
  1

  0
LINE
  5
140DC1
330
140DB5
100
AcDbEntity
  8
L_1
 62
     5
370
    -2
100
AcDbLine
 10
62.67669590136867
 20
159.9543298520985
 30
0.0
 11
62.67669590136867
 21
184.8840183591961
 31
0.0
  0
LINE
  5
140DC2
330
140DB5
100
AcDbEntity
  8
L_1
 62
     5
370
    -2
100
AcDbLine
 10
153.1766959013687
 20
155.9543298520985
 30
0.0
 11
153.1766959013687
 21
184.8840183591961
 31
0.0
  0
LINE
  5
140DC3
330
140DB5
100
AcDbEntity
  8
L_1
 62
     5
370
    -2
100
AcDbLine
 10
65.17669590136867
 20
183.8840183591961
 30
0.0
 11
150.6766959013686
 21
183.8840183591961
 31
0.0
  0
SOLID
  5
140DC4
330
140DB5
100
AcDbEntity
  8
L_1
 62
     5
100
AcDbTrace
 10
65.17669590136867
 20
184.3006850258628
 30
0.0
 11
65.17669590136867
 21
183.4673516925295
 31
0.0
 12
62.67669590136867
 22
183.8840183591961
 32
0.0
 13
62.67669590136867
 23
183.8840183591961
 33
0.0
  0
SOLID
  5
140DC5
330
140DB5
100
AcDbEntity
  8
L_1
 62
     5
100
AcDbTrace
 10
150.6766959013686
 20
184.3006850258628
 30
0.0
 11
150.6766959013686
 21
183.4673516925295
 31
0.0
 12
153.1766959013687
 22
183.8840183591961
 32
0.0
 13
153.1766959013687
 23
183.8840183591961
 33
0.0
  0
MTEXT
  5
140DC6
330
140DB5
100
AcDbEntity
  8
L_1
 62
     0
100
AcDbMText
 10
107.9266959013686
 20
187.1697326449104
 30
0.0
 40
3.0
 41
0.0
 46
0.0
 71
     5
 72
     1
  1
\A1;(90.5)
  7
EXTFONT
 73
     1
 44
1.0
  0
POINT
  5
140DC7
330
140DB5
100
AcDbEntity
  8
DEFPOINTS
 62
     0
100
AcDbPoint
 10
62.67669590136867
 20
158.9543298520985
 30
0.0
  0
POINT
  5
140DC8
330
140DB5
100
AcDbEntity
  8
DEFPOINTS
 62
     0
100
AcDbPoint
 10
153.1766959013687
 20
154.9543298520985
 30
0.0
  0
POINT
  5
140DC9
330
140DB5
100
AcDbEntity
  8
DEFPOINTS
 62
     0
100
AcDbPoint
 10
153.1766959013687
 20
183.8840183591961
 30
0.0
  0
ENDBLK
  5
140DC0
330
140DB5
100
AcDbEntity
  8
0
100
AcDbBlockEnd
  0
BLOCK
  5
140E02
330
140DF8
100
AcDbEntity
  8
0
100
AcDbBlockBegin
  2
*D8
 70
     1
 10
0.0
 20
0.0
 30
0.0
  3
*D8
  1

  0
LINE
  5
140DF9
330
140DF8
100
AcDbEntity
  8
L_1
 62
     5
370
    -2
100
AcDbLine
 10
164.6450531034575
 20
161.5692862502756
 30
0.0
 11
164.6450531034575
 21
178.0657480484859
 31
0.0
  0
LINE
  5
140DFA
330
140DF8
100
AcDbEntity
  8
L_1
 62
     5
370
    -2
100
AcDbLine
 10
187.6450531034576
 20
161.5692862502757
 30
0.0
 11
187.6450531034576
 21
178.0657480484859
 31
0.0
  0
LINE
  5
140DFB
330
140DF8
100
AcDbEntity
  8
L_1
 62
     5
370
    -2
100
AcDbLine
 10
167.1450531034575
 20
177.0657480484859
 30
0.0
 11
185.1450531034576
 21
177.0657480484859
 31
0.0
  0
SOLID
  5
140DFC
330
140DF8
100
AcDbEntity
  8
L_1
 62
     5
100
AcDbTrace
 10
167.1450531034575
 20
177.4824147151526
 30
0.0
 11
167.1450531034575
 21
176.6490813818193
 31
0.0
 12
164.6450531034575
 22
177.0657480484859
 32
0.0
 13
164.6450531034575
 23
177.0657480484859
 33
0.0
  0
SOLID
  5
140DFD
330
140DF8
100
AcDbEntity
  8
L_1
 62
     5
100
AcDbTrace
 10
185.1450531034576
 20
177.4824147151526
 30
0.0
 11
185.1450531034576
 21
176.6490813818193
 31
0.0
 12
187.6450531034576
 22
177.0657480484859
 32
0.0
 13
187.6450531034576
 23
177.0657480484859
 33
0.0
  0
MTEXT
  5
140DFE
330
140DF8
100
AcDbEntity
  8
L_1
 62
     0
100
AcDbMText
 10
176.1450531034576
 20
179.5657480484859
 30
0.0
 40
3.0
 41
0.0
 46
0.0
 71
     5
 72
     1
  1
\A1;23
  7
EXTFONT
 73
     1
 44
1.0
  0
POINT
  5
140DFF
330
140DF8
100
AcDbEntity
  8
DEFPOINTS
 62
     0
100
AcDbPoint
 10
164.6450531034575
 20
160.5692862502756
 30
0.0
  0
POINT
  5
140E00
330
140DF8
100
AcDbEntity
  8
DEFPOINTS
 62
     0
100
AcDbPoint
 10
187.6450531034576
 20
160.5692862502757
 30
0.0
  0
POINT
  5
140E01
330
140DF8
100
AcDbEntity
  8
DEFPOINTS
 62
     0
100
AcDbPoint
 10
187.6450531034576
 20
177.0657480484859
 30
0.0
  0
ENDBLK
  5
140E03
330
140DF8
100
AcDbEntity
  8
0
100
AcDbBlockEnd
  0
BLOCK
  5
140E48
330
140E3C
100
AcDbEntity
  8
0
100
AcDbBlockBegin
  2
*D9
 70
     1
 10
0.0
 20
0.0
 30
0.0
  3
*D9
  1

  0
LINE
  5
140E3D
330
140E3C
100
AcDbEntity
  8
L_1
 62
     5
370
    -2
100
AcDbLine
 10
62.67669590136867
 20
216.5026442084334
 30
0.0
 11
62.67669590136867
 21
200.0578767188521
 31
0.0
  0
LINE
  5
140E3E
330
140E3C
100
AcDbEntity
  8
L_1
 62
     5
370
    -2
100
AcDbLine
 10
66.67669590136869
 20
214.5026442084334
 30
0.0
 11
66.67669590136869
 21
200.0578767188521
 31
0.0
  0
LINE
  5
140E3F
330
140E3C
100
AcDbEntity
  8
L_1
 62
     5
370
    -2
100
AcDbLine
 10
60.17669590136867
 20
201.0578767188521
 30
0.0
 11
57.67669590136867
 21
201.0578767188521
 31
0.0
  0
LINE
  5
140E40
330
140E3C
100
AcDbEntity
  8
L_1
 62
     5
370
    -2
100
AcDbLine
 10
69.17669590136869
 20
201.0578767188521
 30
0.0
 11
71.67669590136869
 21
201.0578767188521
 31
0.0
  0
LINE
  5
140E41
330
140E3C
100
AcDbEntity
  8
L_1
 62
     5
370
    -2
100
AcDbLine
 10
62.67669590136867
 20
201.0578767188521
 30
0.0
 11
66.67669590136869
 21
201.0578767188521
 31
0.0
  0
SOLID
  5
140E42
330
140E3C
100
AcDbEntity
  8
L_1
 62
     5
100
AcDbTrace
 10
60.17669590136867
 20
201.4745433855187
 30
0.0
 11
60.17669590136867
 21
200.6412100521854
 31
0.0
 12
62.67669590136867
 22
201.0578767188521
 32
0.0
 13
62.67669590136867
 23
201.0578767188521
 33
0.0
  0
SOLID
  5
140E43
330
140E3C
100
AcDbEntity
  8
L_1
 62
     5
100
AcDbTrace
 10
69.17669590136869
 20
201.4745433855187
 30
0.0
 11
69.17669590136869
 21
200.6412100521854
 31
0.0
 12
66.67669590136869
 22
201.0578767188521
 32
0.0
 13
66.67669590136869
 23
201.0578767188521
 33
0.0
  0
MTEXT
  5
140E44
330
140E3C
100
AcDbEntity
  8
L_1
 62
     0
100
AcDbMText
 10
64.67669590136868
 20
203.5578767188521
 30
0.0
 40
3.0
 41
0.0
 46
0.0
 71
     5
 72
     1
  1
\A1;4
  7
EXTFONT
 73
     1
 44
1.0
  0
POINT
  5
140E45
330
140E3C
100
AcDbEntity
  8
DEFPOINTS
 62
     0
100
AcDbPoint
 10
62.67669590136867
 20
217.5026442084334
 30
0.0
  0
POINT
  5
140E46
330
140E3C
100
AcDbEntity
  8
DEFPOINTS
 62
     0
100
AcDbPoint
 10
66.67669590136869
 20
215.5026442084334
 30
0.0
  0
POINT
  5
140E47
330
140E3C
100
AcDbEntity
  8
DEFPOINTS
 62
     0
100
AcDbPoint
 10
66.67669590136869
 20
201.0578767188521
 30
0.0
  0
ENDBLK
  5
140E49
330
140E3C
100
AcDbEntity
  8
0
100
AcDbBlockEnd
  0
BLOCK
  5
140E55
330
140E4B
100
AcDbEntity
  8
0
100
AcDbBlockBegin
  2
*D10
 70
     1
 10
0.0
 20
0.0
 30
0.0
  3
*D10
  1

  0
LINE
  5
140F03
330
140E4B
100
AcDbEntity
  8
L_1
 62
     5
370
    -2
100
AcDbLine
 10
62.67669590136867
 20
216.5026442084334
 30
0.0
 11
62.67669590136867
 21
190.2985312364357
 31
0.0
  0
LINE
  5
140F04
330
140E4B
100
AcDbEntity
  8
L_1
 62
     5
370
    -2
100
AcDbLine
 10
123.1766959013687
 20
210.5026442084334
 30
0.0
 11
123.1766959013687
 21
190.2985312364357
 31
0.0
  0
LINE
  5
140F05
330
140E4B
100
AcDbEntity
  8
L_1
 62
     5
370
    -2
100
AcDbLine
 10
65.17669590136867
 20
191.2985312364357
 30
0.0
 11
120.6766959013686
 21
191.2985312364357
 31
0.0
  0
SOLID
  5
140F06
330
140E4B
100
AcDbEntity
  8
L_1
 62
     5
100
AcDbTrace
 10
65.17669590136867
 20
191.7151979031023
 30
0.0
 11
65.17669590136867
 21
190.881864569769
 31
0.0
 12
62.67669590136867
 22
191.2985312364357
 32
0.0
 13
62.67669590136867
 23
191.2985312364357
 33
0.0
  0
SOLID
  5
140F07
330
140E4B
100
AcDbEntity
  8
L_1
 62
     5
100
AcDbTrace
 10
120.6766959013686
 20
191.7151979031023
 30
0.0
 11
120.6766959013686
 21
190.881864569769
 31
0.0
 12
123.1766959013687
 22
191.2985312364357
 32
0.0
 13
123.1766959013687
 23
191.2985312364357
 33
0.0
  0
MTEXT
  5
140F08
330
140E4B
100
AcDbEntity
  8
L_1
 62
     0
100
AcDbMText
 10
92.92669590136867
 20
193.7985312364357
 30
0.0
 40
3.0
 41
0.0
 46
0.0
 71
     5
 72
     1
  1
\A1;60.5
  7
EXTFONT
 73
     1
 44
1.0
  0
POINT
  5
140F09
330
140E4B
100
AcDbEntity
  8
DEFPOINTS
 62
     0
100
AcDbPoint
 10
62.67669590136867
 20
217.5026442084334
 30
0.0
  0
POINT
  5
140F0A
330
140E4B
100
AcDbEntity
  8
DEFPOINTS
 62
     0
100
AcDbPoint
 10
123.1766959013687
 20
211.5026442084334
 30
0.0
  0
POINT
  5
140F0B
330
140E4B
100
AcDbEntity
  8
DEFPOINTS
 62
     0
100
AcDbPoint
 10
123.1766959013687
 20
191.2985312364357
 30
0.0
  0
ENDBLK
  5
140E56
330
140E4B
100
AcDbEntity
  8
0
100
AcDbBlockEnd
  0
BLOCK
  5
140E62
330
140E58
100
AcDbEntity
  8
0
100
AcDbBlockBegin
  2
*D11
 70
     1
 10
0.0
 20
0.0
 30
0.0
  3
*D11
  1

  0
LINE
  5
140F0C
330
140E58
100
AcDbEntity
  8
L_1
 62
     5
370
    -2
100
AcDbLine
 10
66.67669590136869
 20
214.5026442084334
 30
0.0
 11
66.67669590136869
 21
200.0578767188521
 31
0.0
  0
LINE
  5
140F0D
330
140E58
100
AcDbEntity
  8
L_1
 62
     5
370
    -2
100
AcDbLine
 10
123.1766959013687
 20
210.5026442084334
 30
0.0
 11
123.1766959013687
 21
200.0578767188521
 31
0.0
  0
LINE
  5
140F0E
330
140E58
100
AcDbEntity
  8
L_1
 62
     5
370
    -2
100
AcDbLine
 10
69.17669590136869
 20
201.0578767188521
 30
0.0
 11
120.6766959013686
 21
201.0578767188521
 31
0.0
  0
SOLID
  5
140F0F
330
140E58
100
AcDbEntity
  8
L_1
 62
     5
100
AcDbTrace
 10
69.17669590136869
 20
201.4745433855187
 30
0.0
 11
69.17669590136869
 21
200.6412100521854
 31
0.0
 12
66.67669590136869
 22
201.0578767188521
 32
0.0
 13
66.67669590136869
 23
201.0578767188521
 33
0.0
  0
SOLID
  5
140F10
330
140E58
100
AcDbEntity
  8
L_1
 62
     5
100
AcDbTrace
 10
120.6766959013686
 20
201.4745433855187
 30
0.0
 11
120.6766959013686
 21
200.6412100521854
 31
0.0
 12
123.1766959013687
 22
201.0578767188521
 32
0.0
 13
123.1766959013687
 23
201.0578767188521
 33
0.0
  0
MTEXT
  5
140F11
330
140E58
100
AcDbEntity
  8
L_1
 62
     0
100
AcDbMText
 10
94.92669590136868
 20
203.5578767188521
 30
0.0
 40
3.0
 41
0.0
 46
0.0
 71
     5
 72
     1
  1
\A1;56.5
  7
EXTFONT
 73
     1
 44
1.0
  0
POINT
  5
140F12
330
140E58
100
AcDbEntity
  8
DEFPOINTS
 62
     0
100
AcDbPoint
 10
66.67669590136869
 20
215.5026442084334
 30
0.0
  0
POINT
  5
140F13
330
140E58
100
AcDbEntity
  8
DEFPOINTS
 62
     0
100
AcDbPoint
 10
123.1766959013687
 20
211.5026442084334
 30
0.0
  0
POINT
  5
140F14
330
140E58
100
AcDbEntity
  8
DEFPOINTS
 62
     0
100
AcDbPoint
 10
123.1766959013687
 20
201.0578767188521
 30
0.0
  0
ENDBLK
  5
140E63
330
140E58
100
AcDbEntity
  8
0
100
AcDbBlockEnd
  0
BLOCK
  5
140E6F
330
140E65
100
AcDbEntity
  8
0
100
AcDbBlockBegin
  2
*D12
 70
     1
 10
0.0
 20
0.0
 30
0.0
  3
*D12
  1

  0
LINE
  5
140E7C
330
140E65
100
AcDbEntity
  8
L_1
 62
     5
370
    -2
100
AcDbLine
 10
61.67669590136867
 20
217.5026442084334
 30
0.0
 11
52.54070980575605
 21
217.5026442084334
 31
0.0
  0
LINE
  5
140E7D
330
140E65
100
AcDbEntity
  8
L_1
 62
     5
370
    -2
100
AcDbLine
 10
61.67669590136869
 20
227.5026442084334
 30
0.0
 11
52.54070980575605
 21
227.5026442084334
 31
0.0
  0
LINE
  5
140E7E
330
140E65
100
AcDbEntity
  8
L_1
 62
     5
370
    -2
100
AcDbLine
 10
53.54070980575605
 20
220.0026442084334
 30
0.0
 11
53.54070980575605
 21
225.0026442084334
 31
0.0
  0
SOLID
  5
140E7F
330
140E65
100
AcDbEntity
  8
L_1
 62
     5
100
AcDbTrace
 10
53.12404313908938
 20
220.0026442084334
 30
0.0
 11
53.95737647242271
 21
220.0026442084334
 31
0.0
 12
53.54070980575605
 22
217.5026442084334
 32
0.0
 13
53.54070980575605
 23
217.5026442084334
 33
0.0
  0
SOLID
  5
140E80
330
140E65
100
AcDbEntity
  8
L_1
 62
     5
100
AcDbTrace
 10
53.12404313908938
 20
225.0026442084334
 30
0.0
 11
53.95737647242271
 21
225.0026442084334
 31
0.0
 12
53.54070980575605
 22
227.5026442084334
 32
0.0
 13
53.54070980575605
 23
227.5026442084334
 33
0.0
  0
MTEXT
  5
140E81
330
140E65
100
AcDbEntity
  8
L_1
 62
     0
100
AcDbMText
 10
51.04070980575602
 20
222.5026442084334
 30
0.0
 40
3.0
 41
0.0
 46
0.0
 71
     5
 72
     1
  1
\A1;%%c10
  7
EXTFONT
 11
0.0000000000000001
 21
1.0
 31
0.0
 73
     1
 44
1.0
  0
POINT
  5
140E82
330
140E65
100
AcDbEntity
  8
DEFPOINTS
 62
     0
100
AcDbPoint
 10
62.67669590136867
 20
217.5026442084334
 30
0.0
  0
POINT
  5
140E83
330
140E65
100
AcDbEntity
  8
DEFPOINTS
 62
     0
100
AcDbPoint
 10
62.67669590136868
 20
227.5026442084334
 30
0.0
  0
POINT
  5
140E84
330
140E65
100
AcDbEntity
  8
DEFPOINTS
 62
     0
100
AcDbPoint
 10
53.54070980575605
 20
227.5026442084334
 30
0.0
  0
ENDBLK
  5
140E70
330
140E65
100
AcDbEntity
  8
0
100
AcDbBlockEnd
  0
BLOCK
  5
140EB5
330
140EAB
100
AcDbEntity
  8
0
100
AcDbBlockBegin
  2
*D13
 70
     1
 10
0.0
 20
0.0
 30
0.0
  3
*D13
  1

  0
LINE
  5
140EB7
330
140EAB
100
AcDbEntity
  8
L_1
 62
     5
370
    -2
100
AcDbLine
 10
37.67669590136869
 20
235.3829967576623
 30
0.0
 11
37.67669590136869
 21
252.943535455825
 31
0.0
  0
LINE
  5
140EB8
330
140EAB
100
AcDbEntity
  8
L_1
 62
     5
370
    -2
100
AcDbLine
 10
72.67669590136867
 20
234.3329967576624
 30
0.0
 11
72.67669590136867
 21
252.943535455825
 31
0.0
  0
LINE
  5
140EB9
330
140EAB
100
AcDbEntity
  8
L_1
 62
     5
370
    -2
100
AcDbLine
 10
40.17669590136868
 20
251.943535455825
 30
0.0
 11
70.17669590136867
 21
251.943535455825
 31
0.0
  0
SOLID
  5
140EBA
330
140EAB
100
AcDbEntity
  8
L_1
 62
     5
100
AcDbTrace
 10
40.17669590136868
 20
252.3602021224916
 30
0.0
 11
40.17669590136868
 21
251.5268687891583
 31
0.0
 12
37.67669590136869
 22
251.943535455825
 32
0.0
 13
37.67669590136869
 23
251.943535455825
 33
0.0
  0
SOLID
  5
140EBB
330
140EAB
100
AcDbEntity
  8
L_1
 62
     5
100
AcDbTrace
 10
70.17669590136867
 20
252.3602021224916
 30
0.0
 11
70.17669590136867
 21
251.5268687891583
 31
0.0
 12
72.67669590136867
 22
251.943535455825
 32
0.0
 13
72.67669590136867
 23
251.943535455825
 33
0.0
  0
MTEXT
  5
140EBC
330
140EAB
100
AcDbEntity
  8
L_1
 62
     0
100
AcDbMText
 10
55.17669590136868
 20
254.443535455825
 30
0.0
 40
3.0
 41
0.0
 46
0.0
 71
     5
 72
     1
  1
\A1;200
  7
EXTFONT
 73
     1
 44
1.0
  0
POINT
  5
140EBD
330
140EAB
100
AcDbEntity
  8
DEFPOINTS
 62
     0
100
AcDbPoint
 10
37.67669590136869
 20
234.3829967576623
 30
0.0
  0
POINT
  5
140EBE
330
140EAB
100
AcDbEntity
  8
DEFPOINTS
 62
     0
100
AcDbPoint
 10
72.67669590136867
 20
233.3329967576625
 30
0.0
  0
POINT
  5
140EBF
330
140EAB
100
AcDbEntity
  8
DEFPOINTS
 62
     0
100
AcDbPoint
 10
72.67669590136867
 20
251.943535455825
 30
0.0
  0
ENDBLK
  5
140EB6
330
140EAB
100
AcDbEntity
  8
0
100
AcDbBlockEnd
  0
BLOCK
  5
140ECC
330
140EC2
100
AcDbEntity
  8
0
100
AcDbBlockBegin
  2
*D14
 70
     1
 10
0.0
 20
0.0
 30
0.0
  3
*D14
  1

  0
LINE
  5
140EF0
330
140EC2
100
AcDbEntity
  8
L_1
 62
     5
370
    -2
100
AcDbLine
 10
72.67669590136867
 20
234.3329967576624
 30
0.0
 11
72.67669590136867
 21
252.943535455825
 31
0.0
  0
LINE
  5
140EF1
330
140EC2
100
AcDbEntity
  8
L_1
 62
     5
370
    -2
100
AcDbLine
 10
123.1766959013687
 20
234.5026442084334
 30
0.0
 11
123.1766959013687
 21
252.943535455825
 31
0.0
  0
LINE
  5
140EF2
330
140EC2
100
AcDbEntity
  8
L_1
 62
     5
370
    -2
100
AcDbLine
 10
75.17669590136867
 20
251.943535455825
 30
0.0
 11
120.6766959013686
 21
251.943535455825
 31
0.0
  0
SOLID
  5
140EF3
330
140EC2
100
AcDbEntity
  8
L_1
 62
     5
100
AcDbTrace
 10
75.17669590136867
 20
252.3602021224916
 30
0.0
 11
75.17669590136867
 21
251.5268687891583
 31
0.0
 12
72.67669590136867
 22
251.943535455825
 32
0.0
 13
72.67669590136867
 23
251.943535455825
 33
0.0
  0
SOLID
  5
140EF4
330
140EC2
100
AcDbEntity
  8
L_1
 62
     5
100
AcDbTrace
 10
120.6766959013686
 20
252.3602021224916
 30
0.0
 11
120.6766959013686
 21
251.5268687891583
 31
0.0
 12
123.1766959013687
 22
251.943535455825
 32
0.0
 13
123.1766959013687
 23
251.943535455825
 33
0.0
  0
MTEXT
  5
140EF5
330
140EC2
100
AcDbEntity
  8
L_1
 62
     0
100
AcDbMText
 10
97.92669590136867
 20
254.443535455825
 30
0.0
 40
3.0
 41
0.0
 46
0.0
 71
     5
 72
     1
  1
\A1;50.5
  7
EXTFONT
 73
     1
 44
1.0
  0
POINT
  5
140EF6
330
140EC2
100
AcDbEntity
  8
DEFPOINTS
 62
     0
100
AcDbPoint
 10
72.67669590136867
 20
233.3329967576625
 30
0.0
  0
POINT
  5
140EF7
330
140EC2
100
AcDbEntity
  8
DEFPOINTS
 62
     0
100
AcDbPoint
 10
123.1766959013687
 20
233.5026442084334
 30
0.0
  0
POINT
  5
140EF8
330
140EC2
100
AcDbEntity
  8
DEFPOINTS
 62
     0
100
AcDbPoint
 10
123.1766959013687
 20
251.943535455825
 30
0.0
  0
ENDBLK
  5
140ECD
330
140EC2
100
AcDbEntity
  8
0
100
AcDbBlockEnd
  0
BLOCK
  5
140ED9
330
140ECF
100
AcDbEntity
  8
0
100
AcDbBlockBegin
  2
*D15
 70
     1
 10
0.0
 20
0.0
 30
0.0
  3
*D15
  1

  0
LINE
  5
140F84
330
140ECF
100
AcDbEntity
  8
L_1
 62
     5
370
    -2
100
AcDbLine
 10
123.1766959013687
 20
234.5026442084334
 30
0.0
 11
123.1766959013687
 21
252.943535455825
 31
0.0
  0
LINE
  5
140F85
330
140ECF
100
AcDbEntity
  8
L_1
 62
     5
370
    -2
100
AcDbLine
 10
153.1766959013687
 20
224.5026442084334
 30
0.0
 11
153.1766959013687
 21
252.943535455825
 31
0.0
  0
LINE
  5
140F86
330
140ECF
100
AcDbEntity
  8
L_1
 62
     5
370
    -2
100
AcDbLine
 10
125.6766959013686
 20
251.943535455825
 30
0.0
 11
150.6766959013687
 21
251.943535455825
 31
0.0
  0
SOLID
  5
140F87
330
140ECF
100
AcDbEntity
  8
L_1
 62
     5
100
AcDbTrace
 10
125.6766959013686
 20
252.3602021224916
 30
0.0
 11
125.6766959013686
 21
251.5268687891583
 31
0.0
 12
123.1766959013687
 22
251.943535455825
 32
0.0
 13
123.1766959013687
 23
251.943535455825
 33
0.0
  0
SOLID
  5
140F88
330
140ECF
100
AcDbEntity
  8
L_1
 62
     5
100
AcDbTrace
 10
150.6766959013687
 20
252.3602021224916
 30
0.0
 11
150.6766959013687
 21
251.5268687891583
 31
0.0
 12
153.1766959013687
 22
251.943535455825
 32
0.0
 13
153.1766959013687
 23
251.943535455825
 33
0.0
  0
MTEXT
  5
140F89
330
140ECF
100
AcDbEntity
  8
L_1
 62
     0
100
AcDbMText
 10
138.1766959013687
 20
254.443535455825
 30
0.0
 40
3.0
 41
0.0
 46
0.0
 71
     5
 72
     1
  1
\A1;30
  7
EXTFONT
 73
     1
 44
1.0
  0
POINT
  5
140F8A
330
140ECF
100
AcDbEntity
  8
DEFPOINTS
 62
     0
100
AcDbPoint
 10
123.1766959013687
 20
233.5026442084334
 30
0.0
  0
POINT
  5
140F8B
330
140ECF
100
AcDbEntity
  8
DEFPOINTS
 62
     0
100
AcDbPoint
 10
153.1766959013687
 20
223.5026442084333
 30
0.0
  0
POINT
  5
140F8C
330
140ECF
100
AcDbEntity
  8
DEFPOINTS
 62
     0
100
AcDbPoint
 10
153.1766959013687
 20
251.943535455825
 30
0.0
  0
ENDBLK
  5
140EDA
330
140ECF
100
AcDbEntity
  8
0
100
AcDbBlockEnd
  0
BLOCK
  5
140F21
330
140F17
100
AcDbEntity
  8
0
100
AcDbBlockBegin
  2
*D16
 70
     1
 10
0.0
 20
0.0
 30
0.0
  3
*D16
  1

  0
LINE
  5
140F3C
330
140F17
100
AcDbEntity
  8
L_1
 62
     5
370
    -2
100
AcDbLine
 10
121.7867998199817
 20
209.8026442084334
 30
0.0
 11
183.3929357650882
 21
209.8026442084334
 31
0.0
  0
LINE
  5
140F3D
330
140F17
100
AcDbEntity
  8
L_1
 62
     5
370
    -2
100
AcDbLine
 10
121.7867998199816
 20
235.2026442084333
 30
0.0
 11
183.3929357650882
 21
235.2026442084333
 31
0.0
  0
LINE
  5
140F3E
330
140F17
100
AcDbEntity
  8
L_1
 62
     5
370
    -2
100
AcDbLine
 10
182.3929357650882
 20
212.3026442084334
 30
0.0
 11
182.3929357650882
 21
232.7026442084333
 31
0.0
  0
SOLID
  5
140F3F
330
140F17
100
AcDbEntity
  8
L_1
 62
     5
100
AcDbTrace
 10
181.9762690984216
 20
212.3026442084334
 30
0.0
 11
182.8096024317549
 21
212.3026442084334
 31
0.0
 12
182.3929357650882
 22
209.8026442084334
 32
0.0
 13
182.3929357650882
 23
209.8026442084334
 33
0.0
  0
SOLID
  5
140F40
330
140F17
100
AcDbEntity
  8
L_1
 62
     5
100
AcDbTrace
 10
181.9762690984216
 20
232.7026442084333
 30
0.0
 11
182.8096024317549
 21
232.7026442084333
 31
0.0
 12
182.3929357650882
 22
235.2026442084333
 32
0.0
 13
182.3929357650882
 23
235.2026442084333
 33
0.0
  0
MTEXT
  5
140F41
330
140F17
100
AcDbEntity
  8
L_1
 62
     0
100
AcDbMText
 10
179.8929357650882
 20
222.5026442084334
 30
0.0
 40
3.0
 41
0.0
 46
0.0
 71
     5
 72
     1
  1
\A1;%%c25.4
  7
EXTFONT
 11
0.0000000000000001
 21
1.0
 31
0.0
 73
     1
 44
1.0
  0
POINT
  5
140F42
330
140F17
100
AcDbEntity
  8
DEFPOINTS
 62
     0
100
AcDbPoint
 10
120.7867998199817
 20
209.8026442084334
 30
0.0
  0
POINT
  5
140F43
330
140F17
100
AcDbEntity
  8
DEFPOINTS
 62
     0
100
AcDbPoint
 10
120.7867998199816
 20
235.2026442084333
 30
0.0
  0
POINT
  5
140F44
330
140F17
100
AcDbEntity
  8
DEFPOINTS
 62
     0
100
AcDbPoint
 10
182.3929357650882
 20
235.2026442084333
 30
0.0
  0
ENDBLK
  5
140F22
330
140F17
100
AcDbEntity
  8
0
100
AcDbBlockEnd
  0
BLOCK
  5
140F2E
330
140F24
100
AcDbEntity
  8
0
100
AcDbBlockBegin
  2
*D17
 70
     1
 10
0.0
 20
0.0
 30
0.0
  3
*D17
  1

  0
LINE
  5
140F33
330
140F24
100
AcDbEntity
  8
L_1
 62
     5
370
    -2
100
AcDbLine
 10
124.1766959013687
 20
211.5026442084334
 30
0.0
 11
172.6183299886269
 21
211.5026442084334
 31
0.0
  0
LINE
  5
140F34
330
140F24
100
AcDbEntity
  8
L_1
 62
     5
370
    -2
100
AcDbLine
 10
124.1766959013687
 20
233.5026442084334
 30
0.0
 11
172.6183299886269
 21
233.5026442084334
 31
0.0
  0
LINE
  5
140F35
330
140F24
100
AcDbEntity
  8
L_1
 62
     5
370
    -2
100
AcDbLine
 10
171.6183299886269
 20
214.0026442084334
 30
0.0
 11
171.6183299886269
 21
231.0026442084334
 31
0.0
  0
SOLID
  5
140F36
330
140F24
100
AcDbEntity
  8
L_1
 62
     5
100
AcDbTrace
 10
171.2016633219603
 20
214.0026442084334
 30
0.0
 11
172.0349966552936
 21
214.0026442084334
 31
0.0
 12
171.6183299886269
 22
211.5026442084334
 32
0.0
 13
171.6183299886269
 23
211.5026442084334
 33
0.0
  0
SOLID
  5
140F37
330
140F24
100
AcDbEntity
  8
L_1
 62
     5
100
AcDbTrace
 10
171.2016633219603
 20
231.0026442084334
 30
0.0
 11
172.0349966552936
 21
231.0026442084334
 31
0.0
 12
171.6183299886269
 22
233.5026442084334
 32
0.0
 13
171.6183299886269
 23
233.5026442084334
 33
0.0
  0
MTEXT
  5
140F38
330
140F24
100
AcDbEntity
  8
L_1
 62
     0
100
AcDbMText
 10
169.1183299886269
 20
222.5026442084334
 30
0.0
 40
3.0
 41
0.0
 46
0.0
 71
     5
 72
     1
  1
\A1;%%c22
  7
EXTFONT
 11
0.0000000000000001
 21
1.0
 31
0.0
 73
     1
 44
1.0
  0
POINT
  5
140F39
330
140F24
100
AcDbEntity
  8
DEFPOINTS
 62
     0
100
AcDbPoint
 10
123.1766959013687
 20
211.5026442084334
 30
0.0
  0
POINT
  5
140F3A
330
140F24
100
AcDbEntity
  8
DEFPOINTS
 62
     0
100
AcDbPoint
 10
123.1766959013687
 20
233.5026442084334
 30
0.0
  0
POINT
  5
140F3B
330
140F24
100
AcDbEntity
  8
DEFPOINTS
 62
     0
100
AcDbPoint
 10
171.6183299886269
 20
233.5026442084334
 30
0.0
  0
ENDBLK
  5
140F2F
330
140F24
100
AcDbEntity
  8
0
100
AcDbBlockEnd
  0
BLOCK
  5
140F5D
330
140F51
100
AcDbEntity
  8
0
100
AcDbBlockBegin
  2
*D18
 70
     1
 10
0.0
 20
0.0
 30
0.0
  3
*D18
  1

  0
LINE
  5
140F79
330
140F51
100
AcDbEntity
  8
L_1
 62
     5
370
    -2
100
AcDbLine
 10
147.1766959013687
 20
225.0026240102204
 30
0.0
 11
147.1766959013687
 21
244.2799060868417
 31
0.0
  0
LINE
  5
140F7A
330
140F51
100
AcDbEntity
  8
L_1
 62
     5
370
    -2
100
AcDbLine
 10
153.1766959013687
 20
224.5026442084334
 30
0.0
 11
153.1766959013687
 21
244.2799060868417
 31
0.0
  0
LINE
  5
140F7B
330
140F51
100
AcDbEntity
  8
L_1
 62
     5
370
    -2
100
AcDbLine
 10
144.6766959013687
 20
243.2799060868417
 30
0.0
 11
142.1766959013687
 21
243.2799060868417
 31
0.0
  0
LINE
  5
140F7C
330
140F51
100
AcDbEntity
  8
L_1
 62
     5
370
    -2
100
AcDbLine
 10
155.6766959013687
 20
243.2799060868417
 30
0.0
 11
158.1766959013687
 21
243.2799060868417
 31
0.0
  0
LINE
  5
140F7D
330
140F51
100
AcDbEntity
  8
L_1
 62
     5
370
    -2
100
AcDbLine
 10
147.1766959013687
 20
243.2799060868417
 30
0.0
 11
153.1766959013687
 21
243.2799060868417
 31
0.0
  0
SOLID
  5
140F7E
330
140F51
100
AcDbEntity
  8
L_1
 62
     5
100
AcDbTrace
 10
144.6766959013687
 20
243.6965727535084
 30
0.0
 11
144.6766959013687
 21
242.8632394201751
 31
0.0
 12
147.1766959013687
 22
243.2799060868417
 32
0.0
 13
147.1766959013687
 23
243.2799060868417
 33
0.0
  0
SOLID
  5
140F7F
330
140F51
100
AcDbEntity
  8
L_1
 62
     5
100
AcDbTrace
 10
155.6766959013687
 20
243.6965727535084
 30
0.0
 11
155.6766959013687
 21
242.8632394201751
 31
0.0
 12
153.1766959013687
 22
243.2799060868417
 32
0.0
 13
153.1766959013687
 23
243.2799060868417
 33
0.0
  0
MTEXT
  5
140F80
330
140F51
100
AcDbEntity
  8
L_1
 62
     0
100
AcDbMText
 10
150.1766959013687
 20
245.7799060868417
 30
0.0
 40
3.0
 41
0.0
 46
0.0
 71
     5
 72
     1
  1
\A1;6
  7
EXTFONT
 73
     1
 44
1.0
  0
POINT
  5
140F81
330
140F51
100
AcDbEntity
  8
DEFPOINTS
 62
     0
100
AcDbPoint
 10
147.1766959013687
 20
224.0026240102204
 30
0.0
  0
POINT
  5
140F82
330
140F51
100
AcDbEntity
  8
DEFPOINTS
 62
     0
100
AcDbPoint
 10
153.1766959013687
 20
223.5026442084333
 30
0.0
  0
POINT
  5
140F83
330
140F51
100
AcDbEntity
  8
DEFPOINTS
 62
     0
100
AcDbPoint
 10
153.1766959013687
 20
243.2799060868417
 30
0.0
  0
ENDBLK
  5
140F5E
330
140F51
100
AcDbEntity
  8
0
100
AcDbBlockEnd
  0
BLOCK
  5
140F74
330
140F6A
100
AcDbEntity
  8
0
100
AcDbBlockBegin
  2
*D19
 70
     1
 10
0.0
 20
0.0
 30
0.0
  3
*D19
  1

  0
LINE
  5
141011
330
140F6A
100
AcDbEntity
  8
L_1
 62
     5
370
    -2
100
AcDbLine
 10
123.1766959013687
 20
234.5026442084334
 30
0.0
 11
123.1766959013687
 21
244.2799060868417
 31
0.0
  0
LINE
  5
141012
330
140F6A
100
AcDbEntity
  8
L_1
 62
     5
370
    -2
100
AcDbLine
 10
132.6766959013687
 20
231.0026240102204
 30
0.0
 11
132.6766959013687
 21
244.2799060868417
 31
0.0
  0
LINE
  5
141013
330
140F6A
100
AcDbEntity
  8
L_1
 62
     5
370
    -2
100
AcDbLine
 10
125.6766959013686
 20
243.2799060868417
 30
0.0
 11
130.1766959013687
 21
243.2799060868417
 31
0.0
  0
SOLID
  5
141014
330
140F6A
100
AcDbEntity
  8
L_1
 62
     5
100
AcDbTrace
 10
125.6766959013686
 20
243.6965727535084
 30
0.0
 11
125.6766959013686
 21
242.8632394201751
 31
0.0
 12
123.1766959013687
 22
243.2799060868417
 32
0.0
 13
123.1766959013687
 23
243.2799060868417
 33
0.0
  0
SOLID
  5
141015
330
140F6A
100
AcDbEntity
  8
L_1
 62
     5
100
AcDbTrace
 10
130.1766959013687
 20
243.6965727535084
 30
0.0
 11
130.1766959013687
 21
242.8632394201751
 31
0.0
 12
132.6766959013687
 22
243.2799060868417
 32
0.0
 13
132.6766959013687
 23
243.2799060868417
 33
0.0
  0
MTEXT
  5
141016
330
140F6A
100
AcDbEntity
  8
L_1
 62
     0
100
AcDbMText
 10
127.9266959013687
 20
245.7799060868417
 30
0.0
 40
3.0
 41
0.0
 46
0.0
 71
     5
 72
     1
  1
\A1;9.5
  7
EXTFONT
 73
     1
 44
1.0
  0
POINT
  5
141017
330
140F6A
100
AcDbEntity
  8
DEFPOINTS
 62
     0
100
AcDbPoint
 10
123.1766959013687
 20
233.5026442084334
 30
0.0
  0
POINT
  5
141018
330
140F6A
100
AcDbEntity
  8
DEFPOINTS
 62
     0
100
AcDbPoint
 10
132.6766959013687
 20
230.0026240102204
 30
0.0
  0
POINT
  5
141019
330
140F6A
100
AcDbEntity
  8
DEFPOINTS
 62
     0
100
AcDbPoint
 10
132.6766959013687
 20
243.2799060868417
 30
0.0
  0
ENDBLK
  5
140F75
330
140F6A
100
AcDbEntity
  8
0
100
AcDbBlockEnd
  0
BLOCK
  5
140FA2
330
140F96
100
AcDbEntity
  8
0
100
AcDbBlockBegin
  2
*D20
 70
     1
 10
0.0
 20
0.0
 30
0.0
  3
*D20
  1

  0
LINE
  5
140FBA
330
140F96
100
AcDbEntity
  8
L_1
 62
     5
370
    -2
100
AcDbLine
 10
153.6767160995817
 20
224.0026240102205
 30
0.0
 11
163.9108217995915
 21
224.0026240102205
 31
0.0
  0
LINE
  5
140FBB
330
140F96
100
AcDbEntity
  8
L_1
 62
     5
370
    -2
100
AcDbLine
 10
153.6767160995817
 20
221.0026240102204
 30
0.0
 11
163.9108217995915
 21
221.0026240102204
 31
0.0
  0
LINE
  5
140FBC
330
140F96
100
AcDbEntity
  8
L_1
 62
     5
370
    -2
100
AcDbLine
 10
162.9108217995915
 20
226.5026240102205
 30
0.0
 11
162.9108217995915
 21
229.0026240102205
 31
0.0
  0
LINE
  5
140FBD
330
140F96
100
AcDbEntity
  8
L_1
 62
     5
370
    -2
100
AcDbLine
 10
162.9108217995915
 20
218.5026240102204
 30
0.0
 11
162.9108217995915
 21
216.0026240102204
 31
0.0
  0
LINE
  5
140FBE
330
140F96
100
AcDbEntity
  8
L_1
 62
     5
370
    -2
100
AcDbLine
 10
162.9108217995915
 20
224.0026240102205
 30
0.0
 11
162.9108217995915
 21
221.0026240102204
 31
0.0
  0
SOLID
  5
140FBF
330
140F96
100
AcDbEntity
  8
L_1
 62
     5
100
AcDbTrace
 10
162.4941551329249
 20
226.5026240102205
 30
0.0
 11
163.3274884662582
 21
226.5026240102205
 31
0.0
 12
162.9108217995915
 22
224.0026240102205
 32
0.0
 13
162.9108217995915
 23
224.0026240102205
 33
0.0
  0
SOLID
  5
140FC0
330
140F96
100
AcDbEntity
  8
L_1
 62
     5
100
AcDbTrace
 10
162.4941551329249
 20
218.5026240102204
 30
0.0
 11
163.3274884662582
 21
218.5026240102204
 31
0.0
 12
162.9108217995915
 22
221.0026240102204
 32
0.0
 13
162.9108217995915
 23
221.0026240102204
 33
0.0
  0
MTEXT
  5
140FC1
330
140F96
100
AcDbEntity
  8
L_1
 62
     0
100
AcDbMText
 10
160.4108217995915
 20
222.5026240102205
 30
0.0
 40
3.0
 41
0.0
 46
0.0
 71
     5
 72
     1
  1
\A1;　 %%c3
  7
EXTFONT
 11
0.0000000000000001
 21
1.0
 31
0.0
 73
     1
 44
1.0
  0
POINT
  5
140FC2
330
140F96
100
AcDbEntity
  8
DEFPOINTS
 62
     0
100
AcDbPoint
 10
152.6767160995817
 20
224.0026240102205
 30
0.0
  0
POINT
  5
140FC3
330
140F96
100
AcDbEntity
  8
DEFPOINTS
 62
     0
100
AcDbPoint
 10
152.6767160995817
 20
221.0026240102204
 30
0.0
  0
POINT
  5
140FC4
330
140F96
100
AcDbEntity
  8
DEFPOINTS
 62
     0
100
AcDbPoint
 10
162.9108217995915
 20
221.0026240102204
 30
0.0
  0
ENDBLK
  5
140FA3
330
140F96
100
AcDbEntity
  8
0
100
AcDbBlockEnd
  0
ENDSEC
  0
SECTION
  2
ENTITIES
  0
INSERT
  5
131CEE
330
131D05
100
AcDbEntity
  8
0
100
AcDbBlockReference
  2
A4SPWAKU
 10
0.0
 20
3.0
 30
0.0
  0
TEXT
  5
132769
330
131D05
100
AcDbEntity
  8
0
100
AcDbText
 10
95.21428571428565
 20
16.001
 30
0.0
 40
3.0
  1
mm
  7
EXTFONT
 72
     4
 11
99.49999999999995
 21
17.001
 31
0.0
100
AcDbText
  0
TEXT
  5
13276A
330
131D05
100
AcDbEntity
  8
0
100
AcDbText
 10
93.48571428571423
 20
22.38128571428572
 30
0.0
 40
3.0
  1
1 / 1
  7
EXTFONT
 72
     4
 11
99.49999999999995
 21
23.667
 31
0.0
100
AcDbText
  0
TEXT
  5
133108
330
131D05
100
AcDbEntity
  8
0
100
AcDbText
 10
148.1666666666666
 20
275.25
 30
0.0
 40
3.5
  1
SDC-2550(10AR)
  7
EXTFONT
 72
     1
 11
170.9999999999999
 21
277.0
 31
0.0
100
AcDbText
 73
     2
  0
TEXT
  5
133109
330
131D05
100
AcDbEntity
  8
0
100
AcDbText
 10
68.47619047619047
 20
274.5
 30
0.0
 40
5.0
  1
SDC-2550形ソレノイド
  7
EXTFONT
 72
     1
 11
106.0
 21
277.0
 31
0.0
100
AcDbText
 73
     2
  0
LINE
  5
135899
330
131D05
100
AcDbEntity
  8
0
100
AcDbLine
 10
106.9999999999999
 20
10.334
 30
0.0
 11
98.99999999999995
 21
10.334
 31
0.0
  0
LINE
  5
140A33
330
131D05
100
AcDbEntity
  8
0
 62
     7
100
AcDbLine
 10
120.7867998199816
 20
235.2026442084333
 30
0.0
 11
80.67404353845441
 21
235.2026442084333
 31
0.0
  0
LINE
  5
140A34
330
131D05
100
AcDbEntity
  8
0
 62
     7
100
AcDbLine
 10
120.7867998199817
 20
209.8026442084334
 30
0.0
 11
74.17669590136867
 21
209.8026442084334
 31
0.0
  0
LINE
  5
140A35
330
131D05
100
AcDbEntity
  8
0
 62
     7
100
AcDbLine
 10
120.7867998199816
 20
166.6543298520985
 30
0.0
 11
74.17669590136867
 21
166.6543298520985
 31
0.0
  0
DIMENSION
  5
140A38
330
131D05
100
AcDbEntity
  8
0
100
AcDbDimension
  2
*D3
 10
59.25354568866558
 20
155.5043298520985
 30
0.0
 11
56.75354568866556
 21
153.9543298520985
 31
0.0
 70
    32
 71
     5
 42
3.099999999999965
 73
     0
 74
     0
 75
     0
  3
X1
100
AcDbAlignedDimension
 13
62.67669590136867
 23
152.4043298520985
 33
0.0
 14
62.67669590136867
 24
155.5043298520985
 34
0.0
 50
90.0
100
AcDbRotatedDimension
  0
CIRCLE
  5
140A39
330
131D05
100
AcDbEntity
  8
0
100
AcDbCircle
 10
36.1479001819916
 20
153.9543298520985
 30
0.0
 40
14.5
  0
LINE
  5
140A3A
330
131D05
100
AcDbEntity
  8
0
 62
     5
100
AcDbLine
 10
66.67669590136871
 20
146.9543298520985
 30
0.0
 11
66.67669590136867
 21
160.9543298520985
 31
0.0
  0
CIRCLE
  5
140A3C
330
131D05
100
AcDbEntity
  8
0
 62
     7
100
AcDbCircle
 10
36.1479001819916
 20
153.9543298520985
 30
0.0
 40
11.0
  0
LINE
  5
140A3D
330
131D05
100
AcDbEntity
  8
0
  6
CENTER
 62
    10
100
AcDbLine
 10
36.1479001819916
 20
137.4543298520986
 30
0.0
 11
36.1479001819916
 21
170.4543298520985
 31
0.0
  0
ARC
  5
140A3E
330
131D05
100
AcDbEntity
  8
0
 62
     7
100
AcDbCircle
 10
23.10443015733129
 20
154.7308708652221
 30
0.0
 40
0.75
100
AcDbArc
 50
55.8893128761754
 51
297.2965390959511
  0
CIRCLE
  5
140A3F
330
131D05
100
AcDbEntity
  8
0
 62
     7
100
AcDbCircle
 10
36.1479001819916
 20
153.9543298520985
 30
0.0
 40
12.7
  0
LINE
  5
140A40
330
131D05
100
AcDbEntity
  8
0
 62
     7
100
AcDbLine
 10
70.67669590136867
 20
152.4043298520985
 30
0.0
 11
70.67669590136867
 21
155.5043298520986
 31
0.0
  0
LINE
  5
140A41
330
131D05
100
AcDbEntity
  8
0
 62
     7
100
AcDbLine
 10
72.67669590136867
 20
142.7543298520985
 30
0.0
 11
72.67669590136867
 21
165.1543298520985
 31
0.0
  0
ARC
  5
140A44
330
131D05
100
AcDbEntity
  8
0
 62
     7
100
AcDbCircle
 10
23.10443015733129
 20
153.2154627160954
 30
0.0
 40
0.75
100
AcDbArc
 50
62.72679038168281
 51
303.7574924983522
  0
LINE
  5
140A46
330
131D05
100
AcDbEntity
  8
0
 62
     7
100
AcDbLine
 10
62.67669590136867
 20
152.4043298520985
 30
0.0
 11
70.67669590136867
 21
152.4043298520985
 31
0.0
  0
LINE
  5
140A53
330
131D05
100
AcDbEntity
  8
0
 62
     7
100
AcDbLine
 10
62.67669590136867
 20
155.5043298520985
 30
0.0
 11
70.67669590136867
 21
155.5043298520986
 31
0.0
  0
CIRCLE
  5
140A54
330
131D05
100
AcDbEntity
  8
0
100
AcDbCircle
 10
66.67669590136867
 20
222.5026442084334
 30
0.0
 40
1.55
  0
LINE
  5
140A55
330
131D05
100
AcDbEntity
  8
0
 62
     7
100
AcDbLine
 10
72.67669590136867
 20
227.5026442084334
 30
0.0
 11
62.67669590136867
 21
227.5026442084334
 31
0.0
  0
LINE
  5
140A56
330
131D05
100
AcDbEntity
  8
0
 62
     7
100
AcDbLine
 10
72.67669590136867
 20
217.5026442084334
 30
0.0
 11
62.67669590136867
 21
217.5026442084334
 31
0.0
  0
LINE
  5
140A57
330
131D05
100
AcDbEntity
  8
0
 62
     7
100
AcDbLine
 10
62.67669590136867
 20
158.9543298520985
 30
0.0
 11
72.67669590136867
 21
158.9543298520985
 31
0.0
  0
LINE
  5
140A65
330
131D05
100
AcDbEntity
  8
0
 62
     7
100
AcDbLine
 10
62.67669590136867
 20
227.5026442084334
 30
0.0
 11
62.67669590136867
 21
222.5026442084333
 31
0.0
  0
LINE
  5
140A67
330
131D05
100
AcDbEntity
  8
0
 62
     7
100
AcDbLine
 10
62.67669590136867
 20
222.5026442084334
 30
0.0
 11
62.67669590136867
 21
217.5026442084334
 31
0.0
  0
LINE
  5
140A70
330
131D05
100
AcDbEntity
  8
0
 62
     7
100
AcDbLine
 10
72.67669590136872
 20
233.3329967576625
 30
0.0
 11
72.67669590136867
 21
211.3026442084334
 31
0.0
  0
ARC
  5
140A72
330
131D05
100
AcDbEntity
  8
0
 62
     7
100
AcDbCircle
 10
78.67669590136867
 20
235.3056122453576
 30
0.0
 40
2.0
100
AcDbArc
 50
279.4923102799608
 51
357.0488783400952
  0
CIRCLE
  5
140A75
330
131D05
100
AcDbEntity
  8
0
100
AcDbCircle
 10
176.1479001819916
 20
153.9543298520985
 30
0.0
 40
14.5
  0
LINE
  5
140A78
330
131D05
100
AcDbEntity
  8
0
 62
     7
100
AcDbLine
 10
122.2867998199816
 20
165.1543298520985
 30
0.0
 11
122.2867998199816
 21
142.7543298520985
 31
0.0
  0
CIRCLE
  5
140A80
330
131D05
100
AcDbEntity
  8
0
100
AcDbCircle
 10
176.1479001819916
 20
153.9543298520985
 30
0.0
 40
8.5
  0
CIRCLE
  5
140A81
330
131D05
100
AcDbEntity
  8
0
100
AcDbCircle
 10
176.1479001819916
 20
153.9543298520985
 30
0.0
 40
9.0
  0
CIRCLE
  5
140A82
330
131D05
100
AcDbEntity
  8
0
100
AcDbCircle
 10
176.1479001819916
 20
153.9543298520985
 30
0.0
 40
4.5
  0
CIRCLE
  5
140A83
330
131D05
100
AcDbEntity
  8
0
100
AcDbCircle
 10
176.1479001819916
 20
153.9543298520985
 30
0.0
 40
3.0
  0
ARC
  5
140A84
330
131D05
100
AcDbEntity
  8
0
 62
     7
100
AcDbCircle
 10
176.1479001819916
 20
153.9543298520985
 30
0.0
 40
12.7
100
AcDbArc
 50
334.8620501009748
 51
25.13794989902524
  0
ARC
  5
140A85
330
131D05
100
AcDbEntity
  8
0
 62
     7
100
AcDbCircle
 10
176.1479001819916
 20
153.9543298520985
 30
0.0
 40
12.7
100
AcDbArc
 50
154.9225917247938
 51
205.0774082752062
  0
CIRCLE
  5
140A86
330
131D05
100
AcDbEntity
  8
0
100
AcDbCircle
 10
176.1479001819916
 20
153.9543298520985
 30
0.0
 40
1.5
  0
LINE
  5
140A87
330
131D05
100
AcDbEntity
  8
0
 62
     7
100
AcDbLine
 10
187.6450531034575
 20
160.5692862502757
 30
0.0
 11
187.6450531034575
 21
147.2902300589143
 31
0.0
  0
LINE
  5
140A88
330
131D05
100
AcDbEntity
  8
0
 62
     7
100
AcDbLine
 10
164.6450531034575
 20
160.5692862502755
 30
0.0
 11
164.6450531034575
 21
147.2902300589143
 31
0.0
  0
CIRCLE
  5
140A89
330
131D05
100
AcDbEntity
  8
0
 62
     7
100
AcDbCircle
 10
176.1479001819916
 20
153.9543298520985
 30
0.0
 40
11.5
  0
ARC
  5
140A93
330
131D05
100
AcDbEntity
  8
0
 62
     7
100
AcDbCircle
 10
176.1479001819916
 20
153.9543298520985
 30
0.0
 40
12.7
100
AcDbArc
 50
215.1347857417847
 51
264.865214258215
  0
LINE
  5
140A95
330
131D05
100
AcDbEntity
  8
0
 62
     7
100
AcDbLine
 10
164.6450531034575
 20
147.2902300589143
 30
0.0
 11
176.1450531034576
 21
140.6507019632336
 31
0.0
  0
LINE
  5
140AC7
330
131D05
100
AcDbEntity
  8
0
 62
     7
100
AcDbLine
 10
187.6450531034576
 20
147.2902300589143
 30
0.0
 11
176.1450531034576
 21
140.6507019632336
 31
0.0
  0
ARC
  5
140AC8
330
131D05
100
AcDbEntity
  8
0
 62
     7
100
AcDbCircle
 10
176.1479001819916
 20
153.9543298520985
 30
0.0
 40
12.7
100
AcDbArc
 50
275.1042563442036
 51
324.8957436557967
  0
ARC
  5
140ACE
330
131D05
100
AcDbEntity
  8
0
 62
     7
100
AcDbCircle
 10
176.1479001819916
 20
153.9543298520985
 30
0.0
 40
12.7
100
AcDbArc
 50
94.68201153071117
 51
145.317988469288
  0
LINE
  5
140ACF
330
131D05
100
AcDbEntity
  8
0
 62
     7
100
AcDbLine
 10
176.1450531034576
 20
167.2088143459563
 30
0.0
 11
164.6450531034575
 21
160.5692862502756
 31
0.0
  0
LINE
  5
140AD3
330
131D05
100
AcDbEntity
  8
0
 62
     7
100
AcDbLine
 10
132.6766959013687
 20
224.0026240102204
 30
0.0
 11
152.6767160995817
 21
224.0026240102205
 31
0.0
  0
LINE
  5
140B00
330
131D05
100
AcDbEntity
  8
0
100
AcDbLine
 10
123.6766959013686
 20
224.0026442084334
 30
0.0
 11
123.508676666651
 21
224.2947872818819
 31
0.0
  0
LINE
  5
140B01
330
131D05
100
AcDbEntity
  8
0
100
AcDbLine
 10
123.1766959013687
 20
224.0026442084334
 30
0.0
 11
123.6766959013686
 21
224.4426442084334
 31
0.0
  0
ARC
  5
140B02
330
131D05
100
AcDbEntity
  8
0
100
AcDbCircle
 10
84.83709590136911
 20
222.5026442084334
 30
0.0
 40
44.33959999999962
100
AcDbArc
 50
351.3873716484347
 51
8.612628351565311
  0
ARC
  5
140B03
330
131D05
100
AcDbEntity
  8
0
100
AcDbCircle
 10
169.7162959013677
 20
222.5026442084334
 30
0.0
 40
44.33959999999903
100
AcDbArc
 50
171.3873716484347
 51
188.6126283515655
  0
LINE
  5
140B04
330
131D05
100
AcDbEntity
  8
0
 62
     7
100
AcDbLine
 10
129.1766959013687
 20
231.9626442084334
 30
0.0
 11
129.1766959013687
 21
213.0426442084334
 31
0.0
  0
LINE
  5
140B05
330
131D05
100
AcDbEntity
  8
0
 62
     7
100
AcDbLine
 10
125.3766959013687
 20
231.9626442084334
 30
0.0
 11
125.3766959013687
 21
213.0426442084334
 31
0.0
  0
LINE
  5
140B06
330
131D05
100
AcDbEntity
  8
0
 62
     7
100
AcDbLine
 10
124.8766959013687
 20
237.0026442084334
 30
0.0
 11
124.8766959013687
 21
208.0026442084334
 31
0.0
  0
LINE
  5
140B07
330
131D05
100
AcDbEntity
  8
0
 62
     7
100
AcDbLine
 10
123.6766959013686
 20
237.0026442084334
 30
0.0
 11
123.6766959013686
 21
208.0026442084334
 31
0.0
  0
LINE
  5
140B08
330
131D05
100
AcDbEntity
  8
0
 62
     7
100
AcDbLine
 10
132.6766959013687
 20
230.0026240102204
 30
0.0
 11
132.6766959013687
 21
215.0026240102203
 31
0.0
  0
LINE
  5
140B09
330
131D05
100
AcDbEntity
  8
0
 62
     7
100
AcDbLine
 10
131.6766959013687
 20
231.5026240102203
 30
0.0
 11
131.6766959013687
 21
213.5026240102204
 31
0.0
  0
LINE
  5
140B0A
330
131D05
100
AcDbEntity
  8
0
 62
     7
100
AcDbLine
 10
123.1766959013687
 20
233.5026442084334
 30
0.0
 11
123.1766959013687
 21
211.5026442084334
 31
0.0
  0
LINE
  5
140B0B
330
131D05
100
AcDbEntity
  8
0
 62
     7
100
AcDbLine
 10
122.2867998199816
 20
233.7026442084333
 30
0.0
 11
122.2867998199816
 21
211.3026442084334
 31
0.0
  0
LINE
  5
140B0C
330
131D05
100
AcDbEntity
  8
0
100
AcDbLine
 10
124.8766959013687
 20
211.7826442084334
 30
0.0
 11
125.4020755182907
 21
212.1826442084334
 31
0.0
  0
LINE
  5
140B0D
330
131D05
100
AcDbEntity
  8
0
100
AcDbLine
 10
125.4020755182907
 20
212.1826442084334
 30
0.0
 11
124.8766959013687
 21
213.0961468575361
 31
0.0
  0
LINE
  5
140B0E
330
131D05
100
AcDbEntity
  8
0
100
AcDbLine
 10
124.8766959013687
 20
215.3626442084334
 30
0.0
 11
125.4020755182907
 21
215.7626442084334
 31
0.0
  0
LINE
  5
140B0F
330
131D05
100
AcDbEntity
  8
0
100
AcDbLine
 10
125.4020755182907
 20
215.7626442084334
 30
0.0
 11
124.8766959013687
 21
216.6761468575361
 31
0.0
  0
LINE
  5
140B10
330
131D05
100
AcDbEntity
  8
0
100
AcDbLine
 10
124.8766959013687
 20
220.6026442084334
 30
0.0
 11
125.4020755182907
 21
221.0026442084334
 31
0.0
  0
LINE
  5
140B11
330
131D05
100
AcDbEntity
  8
0
100
AcDbLine
 10
125.4020755182907
 20
221.0026442084334
 30
0.0
 11
124.8766959013687
 21
221.9161468575361
 31
0.0
  0
LINE
  5
140B12
330
131D05
100
AcDbEntity
  8
0
 62
     7
100
AcDbLine
 10
124.8766959013687
 20
213.5026240102204
 30
0.0
 11
125.3766959013687
 21
213.5026240102204
 31
0.0
  0
LINE
  5
140B13
330
131D05
100
AcDbEntity
  8
0
 62
     7
100
AcDbLine
 10
124.8766959013687
 20
215.0026240102203
 30
0.0
 11
125.3766959013687
 21
215.0026240102203
 31
0.0
  0
LINE
  5
140B16
330
131D05
100
AcDbEntity
  8
0
100
AcDbLine
 10
124.8766959013687
 20
212.3026442084334
 30
0.0
 11
125.0884678228143
 21
211.9438776591609
 31
0.0
  0
LINE
  5
140B17
330
131D05
100
AcDbEntity
  8
0
 62
     7
100
AcDbLine
 10
124.8766959013687
 20
208.0026442084334
 30
0.0
 11
123.6766959013686
 21
208.0026442084334
 31
0.0
  0
LINE
  5
140B18
330
131D05
100
AcDbEntity
  8
0
100
AcDbLine
 10
123.1766959013687
 20
218.7626442084333
 30
0.0
 11
123.6766959013686
 21
217.915585384904
 31
0.0
  0
LINE
  5
140B19
330
131D05
100
AcDbEntity
  8
0
100
AcDbLine
 10
123.1766959013687
 20
215.1826442084334
 30
0.0
 11
123.6766959013686
 21
215.6226442084334
 31
0.0
  0
LINE
  5
140B1A
330
131D05
100
AcDbEntity
  8
0
100
AcDbLine
 10
123.1766959013687
 20
215.1826442084334
 30
0.0
 11
123.6766959013686
 21
214.335585384904
 31
0.0
  0
LINE
  5
140B1B
330
131D05
100
AcDbEntity
  8
0
100
AcDbLine
 10
123.6766959013686
 20
214.2526240102204
 30
0.0
 11
123.1766959013687
 21
213.5026240102204
 31
0.0
  0
LINE
  5
140B1C
330
131D05
100
AcDbEntity
  8
0
 62
     7
100
AcDbLine
 10
123.1766959013687
 20
213.5026240102204
 30
0.0
 11
123.6766959013686
 21
213.5026240102204
 31
0.0
  0
LINE
  5
140B1D
330
131D05
100
AcDbEntity
  8
0
100
AcDbLine
 10
123.1766959013687
 20
213.5026240102204
 30
0.0
 11
123.1766959013687
 21
213.5026240102204
 31
0.0
  0
LINE
  5
140B1E
330
131D05
100
AcDbEntity
  8
0
100
AcDbLine
 10
123.6766959013686
 20
215.1826442084334
 30
0.0
 11
123.508676666651
 21
215.4747872818818
 31
0.0
  0
LINE
  5
140B1F
330
131D05
100
AcDbEntity
  8
0
100
AcDbLine
 10
124.8766959013687
 20
215.8826442084333
 30
0.0
 11
125.0884678228143
 21
215.5238776591609
 31
0.0
  0
LINE
  5
140B20
330
131D05
100
AcDbEntity
  8
0
100
AcDbLine
 10
123.1766959013687
 20
218.7626442084333
 30
0.0
 11
123.6766959013686
 21
219.2026442084333
 31
0.0
  0
LINE
  5
140B21
330
131D05
100
AcDbEntity
  8
0
100
AcDbLine
 10
123.1766959013687
 20
224.0026442084334
 30
0.0
 11
123.6766959013686
 21
223.155585384904
 31
0.0
  0
LINE
  5
140B22
330
131D05
100
AcDbEntity
  8
0
100
AcDbLine
 10
124.8766959013687
 20
221.1226442084334
 30
0.0
 11
125.0884678228143
 21
220.7638776591609
 31
0.0
  0
LINE
  5
140B23
330
131D05
100
AcDbEntity
  8
0
100
AcDbLine
 10
123.6766959013686
 20
218.7626442084333
 30
0.0
 11
123.508676666651
 21
219.0547872818818
 31
0.0
  0
ARC
  5
140B24
330
131D05
100
AcDbEntity
  8
0
100
AcDbCircle
 10
120.9742959013685
 20
213.0426442084334
 30
0.0
 40
8.202400000000164
100
AcDbArc
 50
339.891328800011
 51
20.10867119998903
  0
ARC
  5
140B25
330
131D05
100
AcDbEntity
  8
0
100
AcDbCircle
 10
133.579095901369
 20
213.0426442084334
 30
0.0
 40
8.202400000000288
100
AcDbArc
 50
159.8913288000123
 51
200.1086711999875
  0
LINE
  5
140B26
330
131D05
100
AcDbEntity
  8
0
 62
     7
100
AcDbLine
 10
128.6766959013686
 20
210.2226442084333
 30
0.0
 11
125.8766959013687
 21
210.2226442084333
 31
0.0
  0
LINE
  5
140B27
330
131D05
100
AcDbEntity
  8
0
 62
     7
100
AcDbLine
 10
129.1766959013687
 20
215.0026240102203
 30
0.0
 11
132.6766959013687
 21
215.0026240102203
 31
0.0
  0
LINE
  5
140B28
330
131D05
100
AcDbEntity
  8
0
 62
     7
100
AcDbLine
 10
129.1766959013687
 20
213.5026240102204
 30
0.0
 11
131.6766959013687
 21
213.5026240102204
 31
0.0
  0
LINE
  5
140B29
330
131D05
100
AcDbEntity
  8
0
 62
     7
100
AcDbLine
 10
128.6766959013686
 20
215.8626442084334
 30
0.0
 11
125.8766959013687
 21
215.8626442084334
 31
0.0
  0
LINE
  5
140B2A
330
131D05
100
AcDbEntity
  8
0
100
AcDbLine
 10
132.6766959013687
 20
215.0026240102203
 30
0.0
 11
131.6766959013687
 21
213.5026240102204
 31
0.0
  0
LINE
  5
140B2B
330
131D05
100
AcDbEntity
  8
0
100
AcDbLine
 10
124.8766959013687
 20
229.4226442084334
 30
0.0
 11
125.4020755182907
 21
229.8226442084334
 31
0.0
  0
LINE
  5
140B2C
330
131D05
100
AcDbEntity
  8
0
100
AcDbLine
 10
125.4020755182907
 20
229.8226442084334
 30
0.0
 11
124.8766959013687
 21
230.7361468575361
 31
0.0
  0
LINE
  5
140B2D
330
131D05
100
AcDbEntity
  8
0
100
AcDbLine
 10
124.8766959013687
 20
225.8426442084334
 30
0.0
 11
125.4020755182907
 21
226.2426442084334
 31
0.0
  0
LINE
  5
140B2E
330
131D05
100
AcDbEntity
  8
0
100
AcDbLine
 10
125.4020755182907
 20
226.2426442084334
 30
0.0
 11
124.8766959013687
 21
227.1561468575362
 31
0.0
  0
LINE
  5
140B2F
330
131D05
100
AcDbEntity
  8
0
 62
     7
100
AcDbLine
 10
124.8766959013687
 20
231.5026240102204
 30
0.0
 11
125.3766959013687
 21
231.5026240102203
 31
0.0
  0
LINE
  5
140B30
330
131D05
100
AcDbEntity
  8
0
 62
     7
100
AcDbLine
 10
125.2985643578037
 20
230.0026240102204
 30
0.0
 11
125.3766959013687
 21
230.0026240102204
 31
0.0
  0
LINE
  5
140B32
330
131D05
100
AcDbEntity
  8
0
100
AcDbLine
 10
124.8766959013687
 20
229.9426442084334
 30
0.0
 11
125.0884678228143
 21
229.5838776591609
 31
0.0
  0
LINE
  5
140B33
330
131D05
100
AcDbEntity
  8
0
100
AcDbLine
 10
123.1766959013687
 20
229.2426442084334
 30
0.0
 11
123.6766959013686
 21
229.6826442084334
 31
0.0
  0
LINE
  5
140B34
330
131D05
100
AcDbEntity
  8
0
100
AcDbLine
 10
123.1766959013687
 20
229.2426442084334
 30
0.0
 11
123.6766959013686
 21
228.395585384904
 31
0.0
  0
LINE
  5
140B35
330
131D05
100
AcDbEntity
  8
0
100
AcDbLine
 10
123.6766959013686
 20
229.2426442084334
 30
0.0
 11
123.508676666651
 21
229.5347872818819
 31
0.0
  0
LINE
  5
140B36
330
131D05
100
AcDbEntity
  8
0
100
AcDbLine
 10
124.8766959013687
 20
226.3626442084334
 30
0.0
 11
125.0884678228143
 21
226.0038776591609
 31
0.0
  0
LINE
  5
140B37
330
131D05
100
AcDbEntity
  8
0
100
AcDbLine
 10
123.1766959013687
 20
232.8226442084333
 30
0.0
 11
123.6766959013686
 21
233.2626442084333
 31
0.0
  0
LINE
  5
140B38
330
131D05
100
AcDbEntity
  8
0
100
AcDbLine
 10
123.1766959013687
 20
232.8226442084333
 30
0.0
 11
123.6766959013687
 21
231.975585384904
 31
0.0
  0
LINE
  5
140B39
330
131D05
100
AcDbEntity
  8
0
100
AcDbLine
 10
123.6766959013686
 20
230.7526240102204
 30
0.0
 11
123.1766959013687
 21
231.5026240102203
 31
0.0
  0
LINE
  5
140B3A
330
131D05
100
AcDbEntity
  8
0
 62
     7
100
AcDbLine
 10
123.1766959013687
 20
231.5026240102203
 30
0.0
 11
123.6766959013686
 21
231.5026240102204
 31
0.0
  0
LINE
  5
140B3C
330
131D05
100
AcDbEntity
  8
0
100
AcDbLine
 10
123.6766959013686
 20
232.8226442084333
 30
0.0
 11
123.508676666651
 21
233.1147872818818
 31
0.0
  0
LINE
  5
140B3D
330
131D05
100
AcDbEntity
  8
0
 62
     7
100
AcDbLine
 10
124.8766959013687
 20
237.0026442084334
 30
0.0
 11
123.6766959013686
 21
237.0026442084334
 31
0.0
  0
LINE
  5
140B3E
330
131D05
100
AcDbEntity
  8
0
 62
     7
100
AcDbLine
 10
129.1766959013687
 20
231.5026240102203
 30
0.0
 11
131.6766959013687
 21
231.5026240102203
 31
0.0
  0
LINE
  5
140B3F
330
131D05
100
AcDbEntity
  8
0
 62
     7
100
AcDbLine
 10
129.1766959013687
 20
230.0026240102204
 30
0.0
 11
132.6766959013687
 21
230.0026240102204
 31
0.0
  0
ARC
  5
140B40
330
131D05
100
AcDbEntity
  8
0
100
AcDbCircle
 10
120.9742959013689
 20
231.9626442084334
 30
0.0
 40
8.202399999999764
100
AcDbArc
 50
339.8913288000102
 51
20.10867119998942
  0
ARC
  5
140B41
330
131D05
100
AcDbEntity
  8
0
100
AcDbCircle
 10
133.5790959013686
 20
231.9626442084334
 30
0.0
 40
8.202399999999935
100
AcDbArc
 50
159.891328800011
 51
200.1086711999896
  0
LINE
  5
140B42
330
131D05
100
AcDbEntity
  8
0
 62
     7
100
AcDbLine
 10
128.6766959013686
 20
229.1426442084333
 30
0.0
 11
125.8766959013687
 21
229.1426442084333
 31
0.0
  0
LINE
  5
140B43
330
131D05
100
AcDbEntity
  8
0
 62
     7
100
AcDbLine
 10
128.6766959013687
 20
234.7826442084334
 30
0.0
 11
125.8766959013686
 21
234.7826442084334
 31
0.0
  0
LINE
  5
140B44
330
131D05
100
AcDbEntity
  8
0
100
AcDbLine
 10
132.6766959013687
 20
230.0026240102204
 30
0.0
 11
131.6766959013687
 21
231.5026240102203
 31
0.0
  0
LINE
  5
140B4A
330
131D05
100
AcDbEntity
  8
0
 62
     7
100
AcDbLine
 10
147.1766959013687
 20
223.5026442084333
 30
0.0
 11
153.1766959013687
 21
223.5026442084333
 31
0.0
  0
LINE
  5
140B4E
330
131D05
100
AcDbEntity
  8
0
 62
     7
100
AcDbLine
 10
147.1766959013687
 20
224.0026240102204
 30
0.0
 11
147.1766959013686
 21
221.0026240102203
 31
0.0
  0
ARC
  5
140B57
330
131D05
100
AcDbEntity
  8
0
 62
     7
100
AcDbCircle
 10
176.1479001819916
 20
153.9543298520985
 30
0.0
 40
12.7
100
AcDbArc
 50
34.65199241301883
 51
85.34800758698045
  0
LINE
  5
140B58
330
131D05
100
AcDbEntity
  8
0
 62
     7
100
AcDbLine
 10
176.1450531034576
 20
167.2088143459564
 30
0.0
 11
187.6450531034576
 21
160.5692862502757
 31
0.0
  0
LINE
  5
140D02
330
131D05
100
AcDbEntity
  8
0
  6
CENTER
 62
    10
100
AcDbLine
 10
52.6479001819916
 20
153.9543298520985
 30
0.0
 11
19.64790018199159
 21
153.9543298520985
 31
0.0
  0
CIRCLE
  5
140D03
330
131D05
100
AcDbEntity
  8
L_1
100
AcDbCircle
 10
36.1479001819916
 20
153.9543298520985
 30
0.0
 40
5.0
  0
LINE
  5
140D04
330
131D05
100
AcDbEntity
  8
L_1
100
AcDbLine
 10
31.39421739913788
 20
155.5043298520986
 30
0.0
 11
40.90158296484532
 21
155.5043298520986
 31
0.0
  0
LINE
  5
140D05
330
131D05
100
AcDbEntity
  8
L_1
100
AcDbLine
 10
31.39421739913786
 20
152.4043298520986
 30
0.0
 11
40.90158296484533
 21
152.4043298520986
 31
0.0
  0
LINE
  5
140D22
330
131D05
100
AcDbEntity
  8
0
  6
CENTER
 62
    10
100
AcDbLine
 10
176.1479001819916
 20
137.4543298520986
 30
0.0
 11
176.1479001819916
 21
170.4543298520985
 31
0.0
  0
LINE
  5
140D26
330
131D05
100
AcDbEntity
  8
0
  6
CENTER
 62
    10
100
AcDbLine
 10
192.6479001819916
 20
153.9543298520985
 30
0.0
 11
159.6479001819916
 21
153.9543298520985
 31
0.0
  0
DIMENSION
  5
140D3C
330
131D05
100
AcDbEntity
  8
L_1
100
AcDbDimension
  2
*D4
 10
190.6479001819916
 20
185.2514381026666
 30
0.0
 11
176.1479001819916
 21
187.7514381026666
 31
0.0
 70
    32
  1
%%c<>
 71
     5
 42
29.0
 73
     0
 74
     0
 75
     0
  3
X1
100
AcDbAlignedDimension
 13
161.6479001819916
 23
153.9543298520985
 33
0.0
 14
190.6479001819916
 24
153.9543298520985
 34
0.0
100
AcDbRotatedDimension
  0
CIRCLE
  5
140D71
330
131D05
100
AcDbEntity
  8
0
100
AcDbCircle
 10
176.1479001819916
 20
153.9543298520985
 30
0.0
 40
1.0
  0
LEADER
  5
140D72
330
131D05
100
AcDbEntity
  8
L_1
100
AcDbLeader
  3
X1
 76
     3
 10
128.6766959013689
 20
141.6726442084339
 30
0.0
 10
116.5706850577008
 20
122.758501378763
 30
0.0
 10
81.04313537422749
 20
122.758501378763
 30
0.0
1001
ACAD
1000
DSTYLE
1002
{
1070
   147
1040
1.0
1070
    77
1070
     0
1002
}
  0
TEXT
  5
140D73
330
131D05
100
AcDbEntity
  8
0
 62
     7
100
AcDbText
 10
81.8745139861542
 20
124.2993004546205
 30
0.0
 40
2.939999999999999
  1
六角ナット(t=3.8)
 50
359.9999999999999
  7
EXTFONT
 11
81.8745139861542
 21
125.7693004546205
 31
0.0
100
AcDbText
 73
     2
  0
TEXT
  5
140D74
330
131D05
100
AcDbEntity
  8
0
 62
     7
100
AcDbText
 10
84.38765709243577
 20
133.0648106505728
 30
0.0
 40
2.939999999999999
  1
歯付座金(t=1.2)
 50
359.9999999999999
  7
EXTFONT
 11
84.38765709243577
 21
134.5348106505728
 31
0.0
100
AcDbText
 73
     2
  0
LEADER
  5
140D75
330
131D05
100
AcDbEntity
  8
L_1
100
AcDbLeader
  3
X1
 76
     3
 10
124.2766959013687
 20
139.4526442084333
 30
0.0
 10
116.3952705624117
 20
131.5240115747154
 30
0.0
 10
83.55627848050906
 20
131.5240115747153
 30
0.0
1001
ACAD
1000
DSTYLE
1002
{
1070
   147
1040
1.0
1070
    77
1070
     0
1002
}
  0
LINE
  5
140D76
330
131D05
100
AcDbEntity
  8
0
  6
CENTER
 62
    10
100
AcDbLine
 10
155.1777893802626
 20
153.9543298520985
 30
0.0
 11
60.67778938026265
 21
153.9543298520985
 31
0.0
  0
LINE
  5
140D77
330
131D05
100
AcDbEntity
  8
0
 62
     7
100
AcDbLine
 10
62.67669590136867
 20
148.9543298520985
 30
0.0
 11
72.67669590136867
 21
148.9543298520985
 31
0.0
  0
LINE
  5
140D86
330
131D05
100
AcDbEntity
  8
L_1
100
AcDbLine
 10
62.67669590136867
 20
148.9543298520985
 30
0.0
 11
62.67669590136867
 21
152.4043298520985
 31
0.0
  0
LINE
  5
140D87
330
131D05
100
AcDbEntity
  8
L_1
100
AcDbLine
 10
62.67669590136867
 20
158.9543298520985
 30
0.0
 11
62.67669590136869
 21
155.5043298520985
 31
0.0
  0
DIMENSION
  5
140D88
330
131D05
100
AcDbEntity
  8
L_1
100
AcDbDimension
  2
*D5
 10
70.67669590136867
 20
134.7146579609054
 30
0.0
 11
66.67669590136869
 21
137.2146579609054
 31
0.0
 70
    32
 71
     5
 42
7.999999999999978
 73
     0
 74
     0
 75
     0
  3
X1
100
AcDbAlignedDimension
 13
62.67669590136869
 23
148.9543298520985
 33
0.0
 14
70.67669590136867
 24
152.4043298520985
 34
0.0
100
AcDbRotatedDimension
  0
LINE
  5
140D95
330
131D05
100
AcDbEntity
  8
0
 62
     7
100
AcDbLine
 10
120.7867998199816
 20
141.2543298520985
 30
0.0
 11
74.17669590136867
 21
141.2543298520985
 31
0.0
  0
ARC
  5
140D96
330
131D05
100
AcDbEntity
  8
0
 62
     7
100
AcDbCircle
 10
74.17669590136867
 20
165.1543298520985
 30
0.0
 40
1.5
100
AcDbArc
 50
90.0
 51
180.0
  0
DIMENSION
  5
140D97
330
131D05
100
AcDbEntity
  8
L_1
100
AcDbDimension
  2
*D6
 10
72.67669590136867
 20
170.0784947376751
 30
0.0
 11
67.67669590136867
 21
173.3642090233894
 31
0.0
 70
    32
  1
(<>)
 71
     5
 42
10.0
 73
     0
 74
     0
 75
     0
  3
X1
100
AcDbAlignedDimension
 13
62.67669590136867
 23
158.9543298520985
 33
0.0
 14
72.67669590136867
 24
165.1543298520985
 34
0.0
100
AcDbRotatedDimension
  0
ARC
  5
140DA4
330
131D05
100
AcDbEntity
  8
0
 62
     7
100
AcDbCircle
 10
74.17669590136867
 20
142.7543298520985
 30
0.0
 40
1.5
100
AcDbArc
 50
180.0
 51
270.0
  0
ARC
  5
140DA5
330
131D05
100
AcDbEntity
  8
0
 62
     7
100
AcDbCircle
 10
120.7867998199816
 20
165.1543298520985
 30
0.0
 40
1.5
100
AcDbArc
 50
0.0
 51
89.99999999999998
  0
ARC
  5
140DA6
330
131D05
100
AcDbEntity
  8
0
 62
     7
100
AcDbCircle
 10
120.7867998199816
 20
142.7543298520985
 30
0.0
 40
1.5
100
AcDbArc
 50
270.0
 51
0.0000000000000382
  0
TEXT
  5
140DB2
330
131D05
100
AcDbEntity
  8
0
 62
     7
100
AcDbText
 10
79.64116795349432
 20
178.1896553022074
 30
0.0
 40
2.939999999999999
  1
M18×1.5
 50
359.9999999999999
  7
EXTFONT
 11
79.64116795349432
 21
179.6596553022074
 31
0.0
100
AcDbText
 73
     2
  0
TEXT
  5
140DB3
330
131D05
100
AcDbEntity
  8
0
 62
     7
100
AcDbText
 10
79.64116795349432
 20
172.6896553022074
 30
0.0
 40
2.939999999999999
  1
根元.不完全ネジ部3.5以下
 50
359.9999999999999
  7
EXTFONT
 11
79.64116795349432
 21
174.1596553022074
 31
0.0
100
AcDbText
 73
     2
  0
DIMENSION
  5
140DB4
330
131D05
100
AcDbEntity
  8
L_1
100
AcDbDimension
  2
*D7
 10
153.1766959013687
 20
183.8840183591961
 30
0.0
 11
107.9266959013686
 21
187.1697326449104
 31
0.0
 70
    32
  1
(<>)
 71
     5
 42
90.5
 73
     0
 74
     0
 75
     0
  3
X1
100
AcDbAlignedDimension
 13
62.67669590136867
 23
158.9543298520985
 33
0.0
 14
153.1766959013687
 24
154.9543298520985
 34
0.0
100
AcDbRotatedDimension
  0
DIMENSION
  5
140DF7
330
131D05
100
AcDbEntity
  8
L_1
100
AcDbDimension
  2
*D8
 10
187.6450531034576
 20
177.0657480484859
 30
0.0
 11
176.1450531034576
 21
179.5657480484859
 31
0.0
 70
    32
 71
     5
 42
23.00000000000006
 73
     0
 74
     0
 75
     0
  3
X1
100
AcDbAlignedDimension
 13
164.6450531034575
 23
160.5692862502756
 33
0.0
 14
187.6450531034576
 24
160.5692862502757
 34
0.0
100
AcDbRotatedDimension
  0
LEADER
  5
140E2E
330
131D05
100
AcDbEntity
  8
L_1
100
AcDbLeader
  3
X1
 76
     3
 10
131.6751382955583
 20
162.9543298520985
 30
0.0
 10
122.8036846631194
 20
176.64885622635
 30
0.0
 10
78.80978934156761
 20
176.64885622635
 30
0.0
1001
ACAD
1000
DSTYLE
1002
{
1070
   147
1040
1.0
1070
    77
1070
     0
1002
}
  0
LINE
  5
140E2F
330
131D05
100
AcDbEntity
  8
0
 62
     5
100
AcDbLine
 10
66.67669590136869
 20
215.5026442084334
 30
0.0
 11
66.67669590136864
 21
229.5026442084334
 31
0.0
  0
LINE
  5
140E30
330
131D05
100
AcDbEntity
  8
0
  6
CENTER
 62
    10
100
AcDbLine
 10
155.1777893802626
 20
222.5026442084334
 30
0.0
 11
60.67778938026262
 21
222.5026442084334
 31
0.0
  0
TEXT
  5
140E39
330
131D05
100
AcDbEntity
  8
0
 62
     7
100
AcDbText
 10
42.22354013895477
 20
207.2486181039183
 30
0.0
 40
2.939999999999999
  1
%%C3.1
 50
359.9999999999999
  7
EXTFONT
 11
42.22354013895477
 21
208.7186181039183
 31
0.0
100
AcDbText
 73
     2
  0
LEADER
  5
140E3A
330
131D05
100
AcDbEntity
  8
L_1
100
AcDbLeader
  3
X1
 76
     3
 10
65.66941721842967
 20
221.3245569218129
 30
0.0
 10
52.66757914244417
 20
206.1179409182619
 30
0.0
 10
41.42043433467981
 20
206.1179409182619
 30
0.0
1001
ACAD
1000
DSTYLE
1002
{
1070
   147
1040
1.0
1070
    77
1070
     0
1002
}
  0
DIMENSION
  5
140E3B
330
131D05
100
AcDbEntity
  8
L_1
100
AcDbDimension
  2
*D9
 10
66.67669590136869
 20
201.0578767188521
 30
0.0
 11
64.67669590136868
 21
203.5578767188521
 31
0.0
 70
    32
 71
     5
 42
4.000000000000014
 73
     0
 74
     0
 75
     0
  3
X1
100
AcDbAlignedDimension
 13
62.67669590136867
 23
217.5026442084334
 33
0.0
 14
66.67669590136869
 24
215.5026442084334
 34
0.0
100
AcDbRotatedDimension
  0
DIMENSION
  5
140E4A
330
131D05
100
AcDbEntity
  8
L_1
100
AcDbDimension
  2
*D10
 10
123.1766959013687
 20
191.2985312364357
 30
0.0
 11
92.92669590136867
 21
193.7985312364357
 31
0.0
 70
    32
 71
     5
 42
60.5
 73
     0
 74
     0
 75
     0
  3
X1
100
AcDbAlignedDimension
 13
62.67669590136867
 23
217.5026442084334
 33
0.0
 14
123.1766959013687
 24
211.5026442084334
 34
0.0
100
AcDbRotatedDimension
  0
DIMENSION
  5
140E57
330
131D05
100
AcDbEntity
  8
L_1
100
AcDbDimension
  2
*D11
 10
123.1766959013687
 20
201.0578767188521
 30
0.0
 11
94.92669590136868
 21
203.5578767188521
 31
0.0
 70
    32
 71
     5
 42
56.49999999999998
 73
     0
 74
     0
 75
     0
  3
X1
100
AcDbAlignedDimension
 13
66.67669590136869
 23
215.5026442084334
 33
0.0
 14
123.1766959013687
 24
211.5026442084334
 34
0.0
100
AcDbRotatedDimension
  0
DIMENSION
  5
140E64
330
131D05
100
AcDbEntity
  8
L_1
100
AcDbDimension
  2
*D12
 10
53.54070980575605
 20
227.5026442084334
 30
0.0
 11
51.04070980575602
 21
222.5026442084334
 31
0.0
 70
    32
  1
%%c<>
 71
     5
 42
10.0
 73
     0
 74
     0
 75
     0
  3
X1
100
AcDbAlignedDimension
 13
62.67669590136867
 23
217.5026442084334
 33
0.0
 14
62.67669590136868
 24
227.5026442084334
 34
0.0
 50
90.0
100
AcDbRotatedDimension
  0
ARC
  5
140E90
330
131D05
100
AcDbEntity
  8
0
100
AcDbCircle
 10
76.17669590136867
 20
233.3329967576625
 30
0.0
 40
1.5
100
AcDbArc
 50
0.0
 51
90.0
  0
LINE
  5
140E91
330
131D05
100
AcDbEntity
  8
0
100
AcDbLine
 10
72.67669590136867
 20
233.3329967576625
 30
0.0
 11
62.0442184634077
 21
233.3329967576623
 31
0.0
  0
LINE
  5
140E92
330
131D05
100
AcDbEntity
  8
0
100
AcDbLine
 10
76.17669590136867
 20
234.8329967576623
 30
0.0
 11
61.28653883916405
 21
234.8329967576622
 31
0.0
  0
ARC
  5
140E93
330
131D05
100
AcDbEntity
  8
0
 62
     5
100
AcDbCircle
 10
60.6160479430128
 20
233.0823421962031
 30
0.0
 40
1.449999567070757
100
AcDbArc
 50
316.4328930897925
 51
43.63856361980785
  0
ARC
  5
140E94
330
131D05
100
AcDbEntity
  8
0
 62
     5
100
AcDbCircle
 10
62.71316527231434
 20
235.0829969520868
 30
0.0
 40
1.448365657206569
100
AcDbArc
 50
136.3355859772023
 51
223.6644140228
  0
LINE
  5
140E95
330
131D05
100
AcDbEntity
  8
L_1
100
AcDbLine
 10
72.67669590136867
 20
233.3329967576625
 30
0.0
 11
79.00652636949584
 21
233.3329967576624
 31
0.0
  0
ARC
  5
140E96
330
131D05
100
AcDbEntity
  8
0
 62
     5
100
AcDbCircle
 10
59.11604794301282
 20
233.0823421962031
 30
0.0
 40
1.449999567070757
100
AcDbArc
 50
316.4328930897925
 51
43.63856361980785
  0
ARC
  5
140E97
330
131D05
100
AcDbEntity
  8
0
 62
     5
100
AcDbCircle
 10
61.21316527231435
 20
235.0829969520868
 30
0.0
 40
1.448365657206569
100
AcDbArc
 50
136.3355859772023
 51
223.6644140227999
  0
LINE
  5
140E98
330
131D05
100
AcDbEntity
  8
0
100
AcDbLine
 10
60.54421846340769
 20
233.3329967576625
 30
0.0
 11
42.67669590136868
 21
233.3329967576623
 31
0.0
  0
LINE
  5
140E99
330
131D05
100
AcDbEntity
  8
0
100
AcDbLine
 10
59.78653883916407
 20
234.8329967576623
 30
0.0
 11
42.67669590136868
 21
234.8329967576622
 31
0.0
  0
LINE
  5
140E9A
330
131D05
100
AcDbEntity
  8
L_1
100
AcDbLine
 10
42.67669590136868
 20
234.8329967576622
 30
0.0
 11
42.67669590136868
 21
233.3329967576622
 31
0.0
  0
LINE
  5
140E9B
330
131D05
100
AcDbEntity
  8
0
100
AcDbLine
 10
37.67669590136869
 20
234.3829967576623
 30
0.0
 11
42.67669590136868
 21
234.3829967576623
 31
0.0
  0
LINE
  5
140E9C
330
131D05
100
AcDbEntity
  8
0
100
AcDbLine
 10
37.67669590136869
 20
233.7829967576623
 30
0.0
 11
42.67669590136868
 21
233.7829967576623
 31
0.0
  0
ARC
  5
140E9E
330
131D05
100
AcDbEntity
  8
0
 62
     7
100
AcDbCircle
 10
74.17669590136867
 20
211.3026442084334
 30
0.0
 40
1.5
100
AcDbArc
 50
180.0
 51
270.0
  0
DIMENSION
  5
140EAA
330
131D05
100
AcDbEntity
  8
L_1
100
AcDbDimension
  2
*D13
 10
72.67669590136867
 20
251.943535455825
 30
0.0
 11
55.17669590136868
 21
254.443535455825
 31
0.0
 70
    32
  1
200
 71
     5
 42
34.99999999999999
 73
     0
 74
     0
 75
     0
  3
X1
100
AcDbAlignedDimension
 13
37.67669590136869
 23
234.3829967576623
 33
0.0
 14
72.67669590136867
 24
233.3329967576625
 34
0.0
100
AcDbRotatedDimension
  0
ARC
  5
140EC0
330
131D05
100
AcDbEntity
  8
0
 62
     7
100
AcDbCircle
 10
120.7867998199816
 20
233.7026442084333
 30
0.0
 40
1.5
100
AcDbArc
 50
0.0
 51
90.0
  0
DIMENSION
  5
140EC1
330
131D05
100
AcDbEntity
  8
L_1
100
AcDbDimension
  2
*D14
 10
123.1766959013687
 20
251.943535455825
 30
0.0
 11
97.92669590136867
 21
254.443535455825
 31
0.0
 70
    32
 71
     5
 42
50.5
 73
     0
 74
     0
 75
     0
  3
X1
100
AcDbAlignedDimension
 13
72.67669590136867
 23
233.3329967576625
 33
0.0
 14
123.1766959013687
 24
233.5026442084334
 34
0.0
100
AcDbRotatedDimension
  0
DIMENSION
  5
140ECE
330
131D05
100
AcDbEntity
  8
L_1
100
AcDbDimension
  2
*D15
 10
153.1766959013687
 20
251.943535455825
 30
0.0
 11
138.1766959013687
 21
254.443535455825
 31
0.0
 70
    32
 71
     5
 42
30.00000000000006
 73
     0
 74
     0
 75
     0
  3
X1
100
AcDbAlignedDimension
 13
123.1766959013687
 23
233.5026442084334
 33
0.0
 14
153.1766959013687
 24
223.5026442084333
 34
0.0
100
AcDbRotatedDimension
  0
LINE
  5
140EDB
330
131D05
100
AcDbEntity
  8
L_1
100
AcDbLine
 10
122.2867998199816
 20
233.5026442084334
 30
0.0
 11
123.1766959013687
 21
233.5026442084334
 31
0.0
  0
LINE
  5
140F02
330
131D05
100
AcDbEntity
  8
L_1
100
AcDbLine
 10
122.2867998199816
 20
211.5026442084334
 30
0.0
 11
123.1766959013687
 21
211.5026442084334
 31
0.0
  0
ARC
  5
140F15
330
131D05
100
AcDbEntity
  8
0
 62
     7
100
AcDbCircle
 10
120.7867998199817
 20
211.3026442084334
 30
0.0
 40
1.5
100
AcDbArc
 50
270.0
 51
0.0000000000000382
  0
DIMENSION
  5
140F16
330
131D05
100
AcDbEntity
  8
L_1
100
AcDbDimension
  2
*D16
 10
182.3929357650882
 20
235.2026442084333
 30
0.0
 11
179.8929357650882
 21
222.5026442084334
 31
0.0
 70
    32
  1
%%c<>
 71
     5
 42
25.39999999999995
 73
     0
 74
     0
 75
     0
  3
X1
100
AcDbAlignedDimension
 13
120.7867998199817
 23
209.8026442084334
 33
0.0
 14
120.7867998199816
 24
235.2026442084333
 34
0.0
 50
90.0
100
AcDbRotatedDimension
  0
DIMENSION
  5
140F23
330
131D05
100
AcDbEntity
  8
L_1
100
AcDbDimension
  2
*D17
 10
171.6183299886269
 20
233.5026442084334
 30
0.0
 11
169.1183299886269
 21
222.5026442084334
 31
0.0
 70
    32
  1
%%c<>
 71
     5
 42
22.0
 73
     0
 74
     0
 75
     0
  3
X1
100
AcDbAlignedDimension
 13
123.1766959013687
 23
211.5026442084334
 33
0.0
 14
123.1766959013687
 24
233.5026442084334
 34
0.0
 50
90.0
100
AcDbRotatedDimension
  0
LINE
  5
140F31
330
131D05
100
AcDbEntity
  8
L_1
100
AcDbLine
 10
122.2867998199816
 20
164.9543298520985
 30
0.0
 11
123.1766959013687
 21
164.9543298520985
 31
0.0
  0
LINE
  5
140F32
330
131D05
100
AcDbEntity
  8
L_1
100
AcDbLine
 10
122.2867998199816
 20
142.9543298520985
 30
0.0
 11
123.1766959013687
 21
142.9543298520985
 31
0.0
  0
DIMENSION
  5
140F50
330
131D05
100
AcDbEntity
  8
L_1
100
AcDbDimension
  2
*D18
 10
153.1766959013687
 20
243.2799060868417
 30
0.0
 11
150.1766959013687
 21
245.7799060868417
 31
0.0
 70
    32
 71
     5
 42
6.0
 73
     0
 74
     0
 75
     0
  3
X1
100
AcDbAlignedDimension
 13
147.1766959013687
 23
224.0026240102204
 33
0.0
 14
153.1766959013687
 24
223.5026442084333
 34
0.0
100
AcDbRotatedDimension
  0
LEADER
  5
140F67
330
131D05
100
AcDbEntity
  8
L_1
100
AcDbLeader
  3
X1
 76
     3
 10
150.1766959013687
 20
224.0026240102204
 30
0.0
 10
163.5802948231328
 20
243.2799060868417
 30
0.0
 10
182.4737472721226
 20
243.2799060868418
 30
0.0
1001
ACAD
1000
DSTYLE
1002
{
1070
   147
1040
1.0
1070
    77
1070
     0
1002
}
  0
TEXT
  5
140F68
330
131D05
100
AcDbEntity
  8
0
 62
     7
100
AcDbText
 10
164.7377602458577
 20
244.277463105077
 30
0.0
 40
2.939999999999999
  1
M3×0.5
 50
359.9999999999999
  7
EXTFONT
 11
164.7377602458577
 21
245.747463105077
 31
0.0
100
AcDbText
 73
     2
  0
DIMENSION
  5
140F69
330
131D05
100
AcDbEntity
  8
L_1
100
AcDbDimension
  2
*D19
 10
132.6766959013687
 20
243.2799060868417
 30
0.0
 11
127.9266959013687
 21
245.7799060868417
 31
0.0
 70
    32
 71
     5
 42
9.500000000000056
 73
     0
 74
     0
 75
     0
  3
X1
100
AcDbAlignedDimension
 13
123.1766959013687
 23
233.5026442084334
 33
0.0
 14
132.6766959013687
 24
230.0026240102204
 34
0.0
100
AcDbRotatedDimension
  0
LINE
  5
140F77
330
131D05
100
AcDbEntity
  8
L_1
100
AcDbLine
 10
152.6767160995817
 20
224.0026240102205
 30
0.0
 11
152.6767160995817
 21
221.0026240102204
 31
0.0
  0
LINE
  5
140F8E
330
131D05
100
AcDbEntity
  8
L_1
100
AcDbLine
 10
147.1766959013687
 20
223.5026442084333
 30
0.0
 11
146.6767160995817
 21
224.0026240102204
 31
0.0
  0
LINE
  5
140F8F
330
131D05
100
AcDbEntity
  8
L_1
100
AcDbLine
 10
153.1766959013687
 20
223.5026442084334
 30
0.0
 11
152.6767160995817
 21
224.0026240102205
 31
0.0
  0
LINE
  5
140F90
330
131D05
100
AcDbEntity
  8
0
 62
     7
100
AcDbLine
 10
132.6766959013687
 20
221.0026644066464
 30
0.0
 11
152.6767160995817
 21
221.0026644066463
 31
0.0
  0
LINE
  5
140F91
330
131D05
100
AcDbEntity
  8
0
 62
     7
100
AcDbLine
 10
147.1766959013687
 20
221.5026442084333
 30
0.0
 11
153.1766959013687
 21
221.5026442084333
 31
0.0
  0
LINE
  5
140F92
330
131D05
100
AcDbEntity
  8
L_1
100
AcDbLine
 10
147.1766959013687
 20
221.5026442084334
 30
0.0
 11
146.6767160995817
 21
221.0026644066463
 31
0.0
  0
LINE
  5
140F93
330
131D05
100
AcDbEntity
  8
L_1
100
AcDbLine
 10
153.1766959013687
 20
221.5026442084333
 30
0.0
 11
152.6767160995817
 21
221.0026644066463
 31
0.0
  0
LINE
  5
140F94
330
131D05
100
AcDbEntity
  8
L_1
100
AcDbLine
 10
153.1766959013687
 20
223.5026442084333
 30
0.0
 11
153.1766959013687
 21
221.5026442084333
 31
0.0
  0
DIMENSION
  5
140F95
330
131D05
100
AcDbEntity
  8
L_1
100
AcDbDimension
  2
*D20
 10
162.9108217995915
 20
221.0026240102204
 30
0.0
 11
160.4108217995915
 21
222.5026240102205
 31
0.0
 70
    32
  1
　 %%c<>
 71
     5
 42
3.000000000000056
 73
     0
 74
     0
 75
     0
  3
X1
100
AcDbAlignedDimension
 13
152.6767160995817
 23
224.0026240102205
 33
0.0
 14
152.6767160995817
 24
221.0026240102204
 34
0.0
 50
90.0
100
AcDbRotatedDimension
  0
LINE
  5
140FC5
330
131D05
100
AcDbEntity
  8
L_1
 62
     5
100
AcDbLine
 10
162.9108217995915
 20
229.0026240102205
 30
0.0
 11
162.9108217995915
 21
231.6348695031018
 31
0.0
  0
LINE
  5
140FC6
330
131D05
100
AcDbEntity
  8
0
 62
     7
100
AcDbLine
 10
132.6766959013687
 20
155.4543096538855
 30
0.0
 11
152.6767160995817
 21
155.4543096538856
 31
0.0
  0
LINE
  5
140FC7
330
131D05
100
AcDbEntity
  8
0
100
AcDbLine
 10
123.6766959013687
 20
155.4543298520986
 30
0.0
 11
123.508676666651
 21
155.746472925547
 31
0.0
  0
LINE
  5
140FC8
330
131D05
100
AcDbEntity
  8
0
100
AcDbLine
 10
123.1766959013687
 20
155.4543298520985
 30
0.0
 11
123.6766959013687
 21
155.8943298520985
 31
0.0
  0
ARC
  5
140FC9
330
131D05
100
AcDbEntity
  8
0
100
AcDbCircle
 10
84.83709590136914
 20
153.9543298520985
 30
0.0
 40
44.33959999999962
100
AcDbArc
 50
351.3873716484349
 51
8.612628351565136
  0
ARC
  5
140FCA
330
131D05
100
AcDbEntity
  8
0
100
AcDbCircle
 10
169.7162959013677
 20
153.9543298520986
 30
0.0
 40
44.33959999999903
100
AcDbArc
 50
171.3873716484348
 51
188.6126283515651
  0
LINE
  5
140FCB
330
131D05
100
AcDbEntity
  8
0
 62
     7
100
AcDbLine
 10
129.1766959013687
 20
163.4143298520986
 30
0.0
 11
129.1766959013687
 21
144.4943298520985
 31
0.0
  0
LINE
  5
140FCC
330
131D05
100
AcDbEntity
  8
0
 62
     7
100
AcDbLine
 10
125.3766959013687
 20
163.4143298520986
 30
0.0
 11
125.3766959013687
 21
144.4943298520985
 31
0.0
  0
LINE
  5
140FCD
330
131D05
100
AcDbEntity
  8
0
 62
     7
100
AcDbLine
 10
124.8766959013687
 20
168.4543298520985
 30
0.0
 11
124.8766959013687
 21
139.4543298520985
 31
0.0
  0
LINE
  5
140FCE
330
131D05
100
AcDbEntity
  8
0
 62
     7
100
AcDbLine
 10
123.6766959013687
 20
168.4543298520985
 30
0.0
 11
123.6766959013687
 21
139.4543298520985
 31
0.0
  0
LINE
  5
140FCF
330
131D05
100
AcDbEntity
  8
0
 62
     7
100
AcDbLine
 10
132.6766959013687
 20
161.4543096538855
 30
0.0
 11
132.6766959013687
 21
146.4543096538855
 31
0.0
  0
LINE
  5
140FD0
330
131D05
100
AcDbEntity
  8
0
 62
     7
100
AcDbLine
 10
131.6766959013687
 20
162.9543096538855
 30
0.0
 11
131.6766959013687
 21
144.9543096538855
 31
0.0
  0
LINE
  5
140FD1
330
131D05
100
AcDbEntity
  8
0
 62
     7
100
AcDbLine
 10
123.1766959013687
 20
164.9543298520985
 30
0.0
 11
123.1766959013687
 21
142.9543298520985
 31
0.0
  0
LINE
  5
140FD2
330
131D05
100
AcDbEntity
  8
0
100
AcDbLine
 10
124.8766959013687
 20
143.2343298520985
 30
0.0
 11
125.4020755182907
 21
143.6343298520985
 31
0.0
  0
LINE
  5
140FD3
330
131D05
100
AcDbEntity
  8
0
100
AcDbLine
 10
125.4020755182907
 20
143.6343298520985
 30
0.0
 11
124.8766959013687
 21
144.5478325012012
 31
0.0
  0
LINE
  5
140FD4
330
131D05
100
AcDbEntity
  8
0
100
AcDbLine
 10
124.8766959013687
 20
146.8143298520985
 30
0.0
 11
125.4020755182907
 21
147.2143298520985
 31
0.0
  0
LINE
  5
140FD5
330
131D05
100
AcDbEntity
  8
0
100
AcDbLine
 10
125.4020755182907
 20
147.2143298520985
 30
0.0
 11
124.8766959013687
 21
148.1278325012012
 31
0.0
  0
LINE
  5
140FD6
330
131D05
100
AcDbEntity
  8
0
100
AcDbLine
 10
124.8766959013687
 20
152.0543298520985
 30
0.0
 11
125.4020755182907
 21
152.4543298520985
 31
0.0
  0
LINE
  5
140FD7
330
131D05
100
AcDbEntity
  8
0
100
AcDbLine
 10
125.4020755182907
 20
152.4543298520985
 30
0.0
 11
124.8766959013687
 21
153.3678325012013
 31
0.0
  0
LINE
  5
140FD8
330
131D05
100
AcDbEntity
  8
0
 62
     7
100
AcDbLine
 10
124.8766959013687
 20
144.9543096538855
 30
0.0
 11
125.3766959013687
 21
144.9543096538855
 31
0.0
  0
LINE
  5
140FD9
330
131D05
100
AcDbEntity
  8
0
 62
     7
100
AcDbLine
 10
124.8766959013687
 20
146.4543096538855
 30
0.0
 11
125.3766959013687
 21
146.4543096538855
 31
0.0
  0
LINE
  5
140FDA
330
131D05
100
AcDbEntity
  8
0
100
AcDbLine
 10
124.8766959013687
 20
143.7543298520986
 30
0.0
 11
125.0884678228143
 21
143.395563302826
 31
0.0
  0
LINE
  5
140FDB
330
131D05
100
AcDbEntity
  8
0
 62
     7
100
AcDbLine
 10
124.8766959013687
 20
139.4543298520985
 30
0.0
 11
123.6766959013687
 21
139.4543298520985
 31
0.0
  0
LINE
  5
140FDC
330
131D05
100
AcDbEntity
  8
0
100
AcDbLine
 10
123.1766959013687
 20
150.2143298520985
 30
0.0
 11
123.6766959013687
 21
149.3672710285691
 31
0.0
  0
LINE
  5
140FDD
330
131D05
100
AcDbEntity
  8
0
100
AcDbLine
 10
123.1766959013687
 20
146.6343298520985
 30
0.0
 11
123.6766959013687
 21
147.0743298520985
 31
0.0
  0
LINE
  5
140FDE
330
131D05
100
AcDbEntity
  8
0
100
AcDbLine
 10
123.1766959013687
 20
146.6343298520985
 30
0.0
 11
123.6766959013687
 21
145.7872710285692
 31
0.0
  0
LINE
  5
140FDF
330
131D05
100
AcDbEntity
  8
0
100
AcDbLine
 10
123.6766959013687
 20
145.7043096538855
 30
0.0
 11
123.1766959013687
 21
144.9543096538855
 31
0.0
  0
LINE
  5
140FE0
330
131D05
100
AcDbEntity
  8
0
 62
     7
100
AcDbLine
 10
123.1766959013687
 20
144.9543096538855
 30
0.0
 11
123.6766959013687
 21
144.9543096538855
 31
0.0
  0
LINE
  5
140FE1
330
131D05
100
AcDbEntity
  8
0
100
AcDbLine
 10
123.1766959013687
 20
144.9543096538855
 30
0.0
 11
123.1766959013687
 21
144.9543096538855
 31
0.0
  0
LINE
  5
140FE2
330
131D05
100
AcDbEntity
  8
0
100
AcDbLine
 10
123.6766959013687
 20
146.6343298520986
 30
0.0
 11
123.508676666651
 21
146.926472925547
 31
0.0
  0
LINE
  5
140FE3
330
131D05
100
AcDbEntity
  8
0
100
AcDbLine
 10
124.8766959013687
 20
147.3343298520985
 30
0.0
 11
125.0884678228143
 21
146.975563302826
 31
0.0
  0
LINE
  5
140FE4
330
131D05
100
AcDbEntity
  8
0
100
AcDbLine
 10
123.1766959013687
 20
150.2143298520985
 30
0.0
 11
123.6766959013687
 21
150.6543298520985
 31
0.0
  0
LINE
  5
140FE5
330
131D05
100
AcDbEntity
  8
0
100
AcDbLine
 10
123.1766959013687
 20
155.4543298520985
 30
0.0
 11
123.6766959013687
 21
154.6072710285691
 31
0.0
  0
LINE
  5
140FE6
330
131D05
100
AcDbEntity
  8
0
100
AcDbLine
 10
124.8766959013687
 20
152.5743298520986
 30
0.0
 11
125.0884678228143
 21
152.215563302826
 31
0.0
  0
LINE
  5
140FE7
330
131D05
100
AcDbEntity
  8
0
100
AcDbLine
 10
123.6766959013687
 20
150.2143298520985
 30
0.0
 11
123.508676666651
 21
150.506472925547
 31
0.0
  0
ARC
  5
140FE8
330
131D05
100
AcDbEntity
  8
0
100
AcDbCircle
 10
120.9742959013686
 20
144.4943298520985
 30
0.0
 40
8.202400000000164
100
AcDbArc
 50
339.8913288000106
 51
20.10867119998941
  0
ARC
  5
140FE9
330
131D05
100
AcDbEntity
  8
0
100
AcDbCircle
 10
133.579095901369
 20
144.4943298520985
 30
0.0
 40
8.202400000000288
100
AcDbArc
 50
159.8913288000123
 51
200.1086711999877
  0
LINE
  5
140FEA
330
131D05
100
AcDbEntity
  8
0
 62
     7
100
AcDbLine
 10
128.6766959013687
 20
141.6743298520985
 30
0.0
 11
125.8766959013687
 21
141.6743298520985
 31
0.0
  0
LINE
  5
140FEB
330
131D05
100
AcDbEntity
  8
0
 62
     7
100
AcDbLine
 10
129.1766959013687
 20
146.4543096538855
 30
0.0
 11
132.6766959013687
 21
146.4543096538855
 31
0.0
  0
LINE
  5
140FEC
330
131D05
100
AcDbEntity
  8
0
 62
     7
100
AcDbLine
 10
129.1766959013687
 20
144.9543096538855
 30
0.0
 11
131.6766959013687
 21
144.9543096538855
 31
0.0
  0
LINE
  5
140FED
330
131D05
100
AcDbEntity
  8
0
 62
     7
100
AcDbLine
 10
128.6766959013687
 20
147.3143298520985
 30
0.0
 11
125.8766959013687
 21
147.3143298520985
 31
0.0
  0
LINE
  5
140FEE
330
131D05
100
AcDbEntity
  8
0
100
AcDbLine
 10
132.6766959013687
 20
146.4543096538855
 30
0.0
 11
131.6766959013687
 21
144.9543096538855
 31
0.0
  0
LINE
  5
140FEF
330
131D05
100
AcDbEntity
  8
0
100
AcDbLine
 10
124.8766959013687
 20
160.8743298520985
 30
0.0
 11
125.4020755182907
 21
161.2743298520985
 31
0.0
  0
LINE
  5
140FF0
330
131D05
100
AcDbEntity
  8
0
100
AcDbLine
 10
125.4020755182907
 20
161.2743298520985
 30
0.0
 11
124.8766959013687
 21
162.1878325012012
 31
0.0
  0
LINE
  5
140FF1
330
131D05
100
AcDbEntity
  8
0
100
AcDbLine
 10
124.8766959013687
 20
157.2943298520985
 30
0.0
 11
125.4020755182907
 21
157.6943298520985
 31
0.0
  0
LINE
  5
140FF2
330
131D05
100
AcDbEntity
  8
0
100
AcDbLine
 10
125.4020755182907
 20
157.6943298520985
 30
0.0
 11
124.8766959013687
 21
158.6078325012013
 31
0.0
  0
LINE
  5
140FF3
330
131D05
100
AcDbEntity
  8
0
 62
     7
100
AcDbLine
 10
124.8766959013687
 20
162.9543096538856
 30
0.0
 11
125.3766959013687
 21
162.9543096538855
 31
0.0
  0
LINE
  5
140FF4
330
131D05
100
AcDbEntity
  8
0
 62
     7
100
AcDbLine
 10
125.2985643578038
 20
161.4543096538855
 30
0.0
 11
125.3766959013687
 21
161.4543096538855
 31
0.0
  0
LINE
  5
140FF5
330
131D05
100
AcDbEntity
  8
0
100
AcDbLine
 10
124.8766959013687
 20
161.3943298520986
 30
0.0
 11
125.0884678228143
 21
161.035563302826
 31
0.0
  0
LINE
  5
140FF6
330
131D05
100
AcDbEntity
  8
0
100
AcDbLine
 10
123.1766959013687
 20
160.6943298520985
 30
0.0
 11
123.6766959013687
 21
161.1343298520985
 31
0.0
  0
LINE
  5
140FF7
330
131D05
100
AcDbEntity
  8
0
100
AcDbLine
 10
123.1766959013687
 20
160.6943298520985
 30
0.0
 11
123.6766959013687
 21
159.8472710285691
 31
0.0
  0
LINE
  5
140FF8
330
131D05
100
AcDbEntity
  8
0
100
AcDbLine
 10
123.6766959013687
 20
160.6943298520985
 30
0.0
 11
123.508676666651
 21
160.986472925547
 31
0.0
  0
LINE
  5
140FF9
330
131D05
100
AcDbEntity
  8
0
100
AcDbLine
 10
124.8766959013687
 20
157.8143298520986
 30
0.0
 11
125.0884678228143
 21
157.455563302826
 31
0.0
  0
LINE
  5
140FFA
330
131D05
100
AcDbEntity
  8
0
100
AcDbLine
 10
123.1766959013687
 20
164.2743298520985
 30
0.0
 11
123.6766959013687
 21
164.7143298520985
 31
0.0
  0
LINE
  5
140FFB
330
131D05
100
AcDbEntity
  8
0
100
AcDbLine
 10
123.1766959013687
 20
164.2743298520985
 30
0.0
 11
123.6766959013687
 21
163.4272710285691
 31
0.0
  0
LINE
  5
140FFC
330
131D05
100
AcDbEntity
  8
0
100
AcDbLine
 10
123.6766959013687
 20
162.2043096538855
 30
0.0
 11
123.1766959013687
 21
162.9543096538855
 31
0.0
  0
LINE
  5
140FFD
330
131D05
100
AcDbEntity
  8
0
 62
     7
100
AcDbLine
 10
123.1766959013687
 20
162.9543096538855
 30
0.0
 11
123.6766959013687
 21
162.9543096538856
 31
0.0
  0
LINE
  5
140FFE
330
131D05
100
AcDbEntity
  8
0
100
AcDbLine
 10
123.6766959013687
 20
164.2743298520985
 30
0.0
 11
123.508676666651
 21
164.566472925547
 31
0.0
  0
LINE
  5
140FFF
330
131D05
100
AcDbEntity
  8
0
 62
     7
100
AcDbLine
 10
124.8766959013687
 20
168.4543298520985
 30
0.0
 11
123.6766959013687
 21
168.4543298520985
 31
0.0
  0
LINE
  5
141000
330
131D05
100
AcDbEntity
  8
0
 62
     7
100
AcDbLine
 10
129.1766959013687
 20
162.9543096538855
 30
0.0
 11
131.6766959013687
 21
162.9543096538855
 31
0.0
  0
LINE
  5
141001
330
131D05
100
AcDbEntity
  8
0
 62
     7
100
AcDbLine
 10
129.1766959013687
 20
161.4543096538855
 30
0.0
 11
132.6766959013687
 21
161.4543096538855
 31
0.0
  0
ARC
  5
141002
330
131D05
100
AcDbEntity
  8
0
100
AcDbCircle
 10
120.974295901369
 20
163.4143298520986
 30
0.0
 40
8.202399999999764
100
AcDbArc
 50
339.8913288000105
 51
20.10867119998946
  0
ARC
  5
141003
330
131D05
100
AcDbEntity
  8
0
100
AcDbCircle
 10
133.5790959013686
 20
163.4143298520986
 30
0.0
 40
8.202399999999935
100
AcDbArc
 50
159.8913288000106
 51
200.1086711999894
  0
LINE
  5
141004
330
131D05
100
AcDbEntity
  8
0
 62
     7
100
AcDbLine
 10
128.6766959013687
 20
160.5943298520985
 30
0.0
 11
125.8766959013687
 21
160.5943298520985
 31
0.0
  0
LINE
  5
141005
330
131D05
100
AcDbEntity
  8
0
 62
     7
100
AcDbLine
 10
128.6766959013687
 20
166.2343298520985
 30
0.0
 11
125.8766959013687
 21
166.2343298520985
 31
0.0
  0
LINE
  5
141006
330
131D05
100
AcDbEntity
  8
0
100
AcDbLine
 10
132.6766959013687
 20
161.4543096538855
 30
0.0
 11
131.6766959013687
 21
162.9543096538855
 31
0.0
  0
LINE
  5
141007
330
131D05
100
AcDbEntity
  8
0
 62
     7
100
AcDbLine
 10
147.1766959013687
 20
154.9543298520985
 30
0.0
 11
153.1766959013687
 21
154.9543298520985
 31
0.0
  0
LINE
  5
141008
330
131D05
100
AcDbEntity
  8
0
 62
     7
100
AcDbLine
 10
147.1766959013687
 20
155.4543096538855
 30
0.0
 11
147.1766959013687
 21
152.4543096538855
 31
0.0
  0
LINE
  5
141009
330
131D05
100
AcDbEntity
  8
L_1
100
AcDbLine
 10
152.6767160995817
 20
155.4543096538856
 30
0.0
 11
152.6767160995817
 21
152.4543096538856
 31
0.0
  0
LINE
  5
14100A
330
131D05
100
AcDbEntity
  8
L_1
100
AcDbLine
 10
147.1766959013687
 20
154.9543298520985
 30
0.0
 11
146.6767160995817
 21
155.4543096538855
 31
0.0
  0
LINE
  5
14100B
330
131D05
100
AcDbEntity
  8
L_1
100
AcDbLine
 10
153.1766959013687
 20
154.9543298520985
 30
0.0
 11
152.6767160995817
 21
155.4543096538856
 31
0.0
  0
LINE
  5
14100C
330
131D05
100
AcDbEntity
  8
0
 62
     7
100
AcDbLine
 10
132.6766959013687
 20
152.4543500503115
 30
0.0
 11
152.6767160995817
 21
152.4543500503114
 31
0.0
  0
LINE
  5
14100D
330
131D05
100
AcDbEntity
  8
0
 62
     7
100
AcDbLine
 10
147.1766959013687
 20
152.9543298520985
 30
0.0
 11
153.1766959013687
 21
152.9543298520985
 31
0.0
  0
LINE
  5
14100E
330
131D05
100
AcDbEntity
  8
L_1
100
AcDbLine
 10
147.1766959013687
 20
152.9543298520986
 30
0.0
 11
146.6767160995817
 21
152.4543500503115
 31
0.0
  0
LINE
  5
14100F
330
131D05
100
AcDbEntity
  8
L_1
100
AcDbLine
 10
153.1766959013687
 20
152.9543298520985
 30
0.0
 11
152.6767160995817
 21
152.4543500503114
 31
0.0
  0
LINE
  5
141010
330
131D05
100
AcDbEntity
  8
L_1
100
AcDbLine
 10
153.1766959013687
 20
154.9543298520985
 30
0.0
 11
153.1766959013687
 21
152.9543298520985
 31
0.0
  0
ENDSEC
  0
SECTION
  2
OBJECTS
  0
DICTIONARY
  5
131CFA
330
0
100
AcDbDictionary
281
     1
  3
ACAD_COLOR
350
131D8D
  3
ACAD_GROUP
350
131CFB
  3
ACAD_LAYOUT
350
131D92
  3
ACAD_MATERIAL
350
131D78
  3
ACAD_MLINESTYLE
350
131D08
  3
ACAD_PLOTSETTINGS
350
131D91
  3
ACAD_PLOTSTYLENAME
350
131D76
  3
ACAD_TABLESTYLE
350
131D8E
  3
ACAD_VISUALSTYLE
350
131D7C
  3
ACDBVARIABLEDICTIONARY
350
131D27
  3
CONTENTDICTIONARY
350
131D54
  0
DICTIONARY
  5
132CE1
330
131CF6
100
AcDbDictionary
280
     1
281
     1
  0
DICTIONARY
  5
131ED6
330
131CF0
100
AcDbDictionary
280
     1
281
     1
  3
ACAD_LAYERSTATES
360
131ED7
  0
DICTIONARY
  5
1325CB
330
131D05
100
AcDbDictionary
280
     1
281
     1
  3
ACAD_SORTENTS
360
1325CC
  0
DICTIONARY
  5
131D8D
102
{ACAD_REACTORS
330
131CFA
102
}
330
131CFA
100
AcDbDictionary
281
     1
  0
DICTIONARY
  5
131CFB
102
{ACAD_REACTORS
330
131CFA
102
}
330
131CFA
100
AcDbDictionary
281
     1
  3
*A1
350
13259F
  3
*A2
350
1327D4
  3
*A3
350
1327EF
  3
*A4
350
13284F
  3
*A5
350
1328E2
  3
*A6
350
1328FD
  3
*A7
350
132918
  3
*A8
350
13294D
  3
*A9
350
132968
  0
DICTIONARY
  5
131D92
102
{ACAD_REACTORS
330
131CFA
102
}
330
131CFA
100
AcDbDictionary
281
     1
  3
Model
350
131D93
  3
レイアウト1
350
131D94
  0
DICTIONARY
  5
131D78
102
{ACAD_REACTORS
330
131CFA
102
}
330
131CFA
100
AcDbDictionary
281
     1
  3
ByBlock
350
131D7A
  3
ByLayer
350
131D79
  3
Global
350
131D7B
  0
DICTIONARY
  5
131D08
102
{ACAD_REACTORS
330
131CFA
102
}
330
131CFA
100
AcDbDictionary
281
     1
  3
STANDARD
350
131D09
  0
DICTIONARY
  5
131D91
102
{ACAD_REACTORS
330
131CFA
102
}
330
131CFA
100
AcDbDictionary
281
     1
  0
ACDBDICTIONARYWDFLT
  5
131D76
102
{ACAD_REACTORS
330
131CFA
102
}
330
131CFA
100
AcDbDictionary
281
     1
  3
Normal
350
131D77
100
AcDbDictionaryWithDefault
340
131D77
  0
DICTIONARY
  5
131D8E
102
{ACAD_REACTORS
330
131CFA
102
}
330
131CFA
100
AcDbDictionary
281
     1
  3
Standard
350
131D8F
  0
DICTIONARY
  5
131D7C
102
{ACAD_REACTORS
330
131CFA
102
}
330
131CFA
100
AcDbDictionary
281
     1
  3
2dWireframe
350
131D82
  3
3D Hidden
350
131D84
  3
3dWireframe
350
131D83
  3
Basic
350
131D81
  3
Brighten
350
131D88
  3
ColorChange
350
131D8C
  3
Conceptual
350
131D85
  3
Dim
350
131D87
  3
Facepattern
350
131D8B
  3
Flat
350
131D7D
  3
FlatWithEdges
350
131D7E
  3
Gouraud
350
131D7F
  3
GouraudWithEdges
350
131D80
  3
Linepattern
350
131D8A
  3
Realistic
350
131D86
  3
Thicken
350
131D89
  0
DICTIONARY
  5
131D27
102
{ACAD_REACTORS
330
131CFA
102
}
330
131CFA
100
AcDbDictionary
281
     1
  3
CTABLESTYLE
350
131F4E
  3
DIMADEC
350
131D28
  3
DIMASSOC
350
132D03
  3
INDEXCTL
350
132D02
  3
SORTENTS
350
132D01
  0
DICTIONARY
  5
131D54
102
{ACAD_REACTORS
330
131CFA
102
}
330
131CFA
100
AcDbDictionary
281
     1
  0
DICTIONARY
  5
131ED7
102
{ACAD_REACTORS
330
131ED6
102
}
330
131ED6
100
AcDbDictionary
281
     1
  0
SORTENTSTABLE
  5
1325CC
102
{ACAD_REACTORS
330
1325CB
102
}
330
1325CB
100
AcDbSortentsTable
330
131D05
331
140A3A
  5
140A3F
331
140B18
  5
140B1E
331
140B20
  5
140B26
331
140D26
  5
140D75
331
140B28
  5
140B2E
331
140DA5
  5
140A3A
331
140E92
  5
140E96
331
140B30
  5
140B37
331
140E9A
  5
140E9E
331
140B01
  5
140B05
331
140B38
  5
140B3E
331
140A72
  5
140A78
331
140D76
  5
140D96
331
140B40
  5
140B46
331
140EAA
  5
140EC1
331
140B09
  5
140B0D
331
140B11
  5
140B17
331
140A82
  5
140A86
331
140D86
  5
140DA4
331
140A35
  5
140A39
331
140D96
  5
140A3C
331
140B19
  5
140B1F
331
140B58
  5
140D26
331
140B21
  5
140B27
331
140DA6
  5
140DB3
331
140A53
  5
140A57
331
140B29
  5
140B2F
331
140E93
  5
140E97
331
140E9B
  5
140EAA
331
140B02
  5
140B06
331
140B39
  5
140B3F
331
140F02
  5
140F15
331
140D77
  5
140D97
331
140B0A
  5
140B0E
331
140B41
  5
140B47
331
140E64
  5
140E93
331
140D87
  5
140DA5
331
140B12
  5
140B18
331
140A83
  5
140A87
331
140D97
  5
140DF7
331
140B1A
  5
140B20
331
140A3C
  5
140A40
331
140A93
  5
140A9B
331
140B22
  5
140B28
331
140A44
  5
140A4F
331
140A54
  5
140A5A
331
140B2A
  5
140B30
331
140EDB
  5
140F02
331
140E94
  5
140E98
331
140AD3
  5
140AD7
331
140B32
  5
140B38
331
140E9C
  5
140EC0
331
140B03
  5
140B07
331
140B3A
  5
140B41
331
140B42
  5
140B48
331
140B0B
  5
140B0F
331
140B13
  5
140B19
331
140B4A
  5
140B51
331
140A84
  5
140A88
331
140D88
  5
140DA6
331
140E2E
  5
140E3A
331
132769
  5
132769
331
140B1B
  5
140B21
331
140A3D
  5
140A41
331
140DF7
  5
140E39
331
140B23
  5
140B29
331
140B2B
  5
140B31
331
133108
  5
133108
331
140A55
  5
140A5B
331
140A65
  5
140A71
331
140B33
  5
140B39
331
140E95
  5
140E99
331
140B04
  5
140B08
331
140D71
  5
140D77
331
140A75
  5
140A79
331
140B0C
  5
140B12
331
140B43
  5
140B49
331
140E2F
  5
140E3B
331
140A85
  5
140A89
331
140D02
  5
140D3C
331
13276A
  5
13276A
331
140B1C
  5
140B22
331
140D22
  5
140D74
331
140A3E
  5
140A44
331
140A95
  5
140A9C
331
140B24
  5
140B2A
331
140A46
  5
140A55
331
140A56
  5
140A67
331
140B2C
  5
140B32
331
133109
  5
133109
331
140E96
  5
140E9A
331
140E57
  5
140E92
331
140B34
  5
140B3A
331
140E9E
  5
140A38
331
135899
  5
135899
331
140B3C
  5
140B42
331
140B05
  5
140B09
331
140D72
  5
140D86
331
140B44
  5
140B4A
331
140B0D
  5
140B13
331
140E30
  5
140E4A
331
140A86
  5
140A8B
331
140D03
  5
140D64
331
140F15
  5
140B10
331
140B1D
  5
140B23
331
140A3F
  5
140A46
331
140ECE
  5
140EDB
331
131CEE
  5
131CEE
331
140B25
  5
140B2B
331
140B2D
  5
140B33
331
140ACE
  5
140AD2
331
140A57
  5
140A69
331
140E97
  5
140E9B
331
140A67
  5
140A72
331
140B35
  5
140B3B
331
140DB2
  5
140E2E
331
140D73
  5
140D87
331
140B06
  5
140B0A
331
140B3D
  5
140B43
331
140B0E
  5
140B14
331
140D04
  5
140D71
331
140A87
  5
140A8D
331
140B16
  5
140B1C
331
140E39
  5
140E57
331
140A38
  5
140A3D
331
140B1E
  5
140B24
331
140A40
  5
140A4B
331
140D3C
  5
140D76
331
140B26
  5
140B2C
331
140AC7
  5
140ACB
331
140ACF
  5
140AD3
331
140B2E
  5
140B34
331
140E90
  5
140E94
331
140E98
  5
140E9C
331
140DB3
  5
140E2F
331
140B36
  5
140B3C
331
140A70
  5
140A77
331
140B3E
  5
140B44
331
140A78
  5
140A7C
331
140B07
  5
140B0B
331
140D74
  5
140D88
331
140A80
  5
140A84
331
140A33
  5
140A33
331
140B0F
  5
140B15
331
140B17
  5
140B1D
331
140B4E
  5
140B54
331
140A88
  5
140A8E
331
140D05
  5
140D73
331
140E3A
  5
140E64
331
140EC0
  5
140B11
331
140A39
  5
140A3E
331
140A41
  5
140A4D
331
140B1F
  5
140B25
331
140DA4
  5
140DB4
331
140E4A
  5
140E91
331
140AC8
  5
140ACD
331
140B27
  5
140B2D
331
140B2F
  5
140B36
331
140E91
  5
140E95
331
140E99
  5
140E9D
331
140B37
  5
140B3D
331
140DB4
  5
140E30
331
140B00
  5
140B04
331
140D75
  5
140D95
331
140B08
  5
140B0C
331
140B3F
  5
140B45
331
140B10
  5
140B16
331
140A34
  5
140A34
331
140A81
  5
140A85
331
140A89
  5
140A8F
331
140B57
  5
140D22
331
140D95
  5
140DB2
331
140E3B
  5
140E90
331
140EC1
  5
140ECE
  0
GROUP
  5
13259F
102
{ACAD_REACTORS
330
131CFB
102
}
330
131CFB
100
AcDbGroup
300

 70
     1
 71
     1
  0
GROUP
  5
1327D4
102
{ACAD_REACTORS
330
131CFB
102
}
330
131CFB
100
AcDbGroup
300

 70
     1
 71
     1
  0
GROUP
  5
1327EF
102
{ACAD_REACTORS
330
131CFB
102
}
330
131CFB
100
AcDbGroup
300

 70
     1
 71
     1
  0
GROUP
  5
13284F
102
{ACAD_REACTORS
330
131CFB
102
}
330
131CFB
100
AcDbGroup
300

 70
     1
 71
     1
  0
GROUP
  5
1328E2
102
{ACAD_REACTORS
330
131CFB
102
}
330
131CFB
100
AcDbGroup
300

 70
     1
 71
     1
  0
GROUP
  5
1328FD
102
{ACAD_REACTORS
330
131CFB
102
}
330
131CFB
100
AcDbGroup
300

 70
     1
 71
     1
  0
GROUP
  5
132918
102
{ACAD_REACTORS
330
131CFB
102
}
330
131CFB
100
AcDbGroup
300

 70
     1
 71
     1
  0
GROUP
  5
13294D
102
{ACAD_REACTORS
330
131CFB
102
}
330
131CFB
100
AcDbGroup
300

 70
     1
 71
     1
  0
GROUP
  5
132968
102
{ACAD_REACTORS
330
131CFB
102
}
330
131CFB
100
AcDbGroup
300

 70
     1
 71
     1
  0
LAYOUT
  5
131D93
102
{ACAD_REACTORS
330
131D92
102
}
330
131D92
100
AcDbPlotSettings
  1

  2
RICOH IPSiO GX e7700.pc3
  4
A4
  6

 40
3.0
 41
3.0
 42
2.97332763671875
 43
2.925994873046875
 44
209.9733276367187
 45
296.9259948730469
 46
0.0
 47
0.0
 48
0.0
 49
0.0
140
0.0
141
0.0
142
1.0
143
1.0
 70
  3744
 72
     1
 73
     0
 74
     2
  7
acadlt.ctb
 75
     0
147
0.964091257821946
 76
     1
 77
     2
 78
   300
148
0.0
149
0.0
100
AcDbLayout
  1
Model
 70
     1
 71
     0
 10
0.0
 20
0.0
 11
12.0
 21
9.0
 12
0.0
 22
0.0
 32
0.0
 14
0.0
 24
0.0
 34
0.0
 15
0.0
 25
0.0
 35
0.0
146
0.0
 13
0.0
 23
0.0
 33
0.0
 16
1.0
 26
0.0
 36
0.0
 17
0.0
 27
1.0
 37
0.0
 76
     0
330
131D05
331
131D74
1001
ACAD_PSEXT
1000
RICOH IPSiO GX e7700.pc3
1000
RICOH IPSiO GX e7700
1000
192.168.1.16
1000
RPCS Raster Driver (For Windows)
1070
     0
  0
LAYOUT
  5
131D94
102
{ACAD_REACTORS
330
131D92
102
}
330
131D92
100
AcDbPlotSettings
  1

  2
\\1147suzuki\EPSON PM-3700C
  4

  6

 40
0.0
 41
0.0
 42
0.0
 43
0.0
 44
0.0
 45
0.0
 46
0.0
 47
0.0
 48
0.0
 49
0.0
140
0.0
141
0.0
142
1.0
143
1.0
 70
   688
 72
     0
 73
     0
 74
     5
  7
acadlt.ctb
 75
    16
147
1.0
 76
     0
 77
     2
 78
   300
148
0.0
149
0.0
100
AcDbLayout
  1
レイアウト1
 70
     0
 71
     1
 10
0.0
 20
0.0
 11
420.0
 21
297.0
 12
0.0
 22
0.0
 32
0.0
 14
1.000000000000000E+20
 24
1.000000000000000E+20
 34
1.000000000000000E+20
 15
-1.000000000000000E+20
 25
-1.000000000000000E+20
 35
-1.000000000000000E+20
146
0.0
 13
0.0
 23
0.0
 33
0.0
 16
1.0
 26
0.0
 36
0.0
 17
0.0
 27
1.0
 37
0.0
 76
     0
330
131D02
  0
MATERIAL
  5
131D7A
102
{ACAD_REACTORS
330
131D78
102
}
330
131D78
100
AcDbMaterial
  1
ByBlock
  0
MATERIAL
  5
131D79
102
{ACAD_REACTORS
330
131D78
102
}
330
131D78
100
AcDbMaterial
  1
ByLayer
  0
MATERIAL
  5
131D7B
102
{ACAD_REACTORS
330
131D78
102
}
330
131D78
100
AcDbMaterial
  1
Global
  0
MLINESTYLE
  5
131D09
102
{ACAD_REACTORS
330
131D08
102
}
330
131D08
100
AcDbMlineStyle
  2
STANDARD
 70
     0
  3

 62
   256
 51
90.0
 52
90.0
 71
     2
 49
0.5
 62
   256
  6
BYLAYER
 49
-0.5
 62
   256
  6
BYLAYER
  0
ACDBPLACEHOLDER
  5
131D77
102
{ACAD_REACTORS
330
131D76
102
}
330
131D76
  0
TABLESTYLE
  5
131D8F
102
{ACAD_REACTORS
330
131D8E
102
}
330
131D8E
100
AcDbTableStyle
  3
Standard
 70
     0
 71
     0
 40
0.06
 41
0.06
280
     0
281
     0
  7
STANDARD
140
0.18
170
     2
 62
     0
 63
     7
283
     0
 90
      512
 91
        0
  1

274
    -2
284
     1
 64
     0
275
    -2
285
     1
 65
     0
276
    -2
286
     1
 66
     0
277
    -2
287
     1
 67
     0
278
    -2
288
     1
 68
     0
279
    -2
289
     1
 69
     0
  7
STANDARD
140
0.25
170
     5
 62
     0
 63
     7
283
     0
 90
      512
 91
        0
  1

274
    -2
284
     1
 64
     0
275
    -2
285
     1
 65
     0
276
    -2
286
     1
 66
     0
277
    -2
287
     1
 67
     0
278
    -2
288
     1
 68
     0
279
    -2
289
     1
 69
     0
  7
STANDARD
140
0.18
170
     5
 62
     0
 63
     7
283
     0
 90
      512
 91
        0
  1

274
    -2
284
     1
 64
     0
275
    -2
285
     1
 65
     0
276
    -2
286
     1
 66
     0
277
    -2
287
     1
 67
     0
278
    -2
288
     1
 68
     0
279
    -2
289
     1
 69
     0
  0
VISUALSTYLE
  5
131D82
102
{ACAD_REACTORS
330
131D7C
102
}
330
131D7C
100
AcDbVisualStyle
  2
2dWireframe
 70
     4
 71
     0
 72
     2
 73
     0
 90
        0
 40
-0.6
 41
-30.0
 62
     5
 63
     7
 74
     1
 91
        4
 64
     7
 65
   257
 75
     1
175
     1
 42
1.0
 92
        0
 66
   257
 43
1.0
 76
     1
 77
     6
 78
     2
 67
     7
 79
     5
170
     0
171
     0
290
     0
174
     0
 93
        1
 44
0.0
173
     0
291
     0
 45
0.0
  0
VISUALSTYLE
  5
131D84
102
{ACAD_REACTORS
330
131D7C
102
}
330
131D7C
100
AcDbVisualStyle
  2
3D Hidden
 70
     6
 71
     1
 72
     2
 73
     2
 90
        0
 40
-0.6
 41
-30.0
 62
     5
 63
     7
 74
     2
 91
        2
 64
     7
 65
   257
 75
     2
175
     1
 42
40.0
 92
        0
 66
   257
 43
1.0
 76
     1
 77
     6
 78
     2
 67
     7
 79
     3
170
     0
171
     0
290
     0
174
     0
 93
        1
 44
0.0
173
     0
291
     0
 45
0.0
  0
VISUALSTYLE
  5
131D83
102
{ACAD_REACTORS
330
131D7C
102
}
330
131D7C
100
AcDbVisualStyle
  2
3dWireframe
 70
     5
 71
     0
 72
     2
 73
     0
 90
        0
 40
-0.6
 41
-30.0
 62
     5
 63
     7
 74
     1
 91
        4
 64
     7
 65
   257
 75
     1
175
     1
 42
1.0
 92
        0
 66
   257
 43
1.0
 76
     1
 77
     6
 78
     2
 67
     7
 79
     5
170
     0
171
     0
290
     0
174
     0
 93
        1
 44
0.0
173
     0
291
     0
 45
0.0
  0
VISUALSTYLE
  5
131D81
102
{ACAD_REACTORS
330
131D7C
102
}
330
131D7C
100
AcDbVisualStyle
  2
Basic
 70
     7
 71
     1
 72
     0
 73
     1
 90
        0
 40
-0.6
 41
-30.0
 62
     5
 63
     7
 74
     0
 91
        4
 64
     7
 65
   257
 75
     1
175
     1
 42
1.0
 92
        8
 66
     7
 43
1.0
 76
     1
 77
     6
 78
     2
 67
     7
 79
     5
170
     0
171
     0
290
     0
174
     0
 93
        1
 44
0.0
173
     0
291
     1
 45
0.0
  0
VISUALSTYLE
  5
131D88
102
{ACAD_REACTORS
330
131D7C
102
}
330
131D7C
100
AcDbVisualStyle
  2
Brighten
 70
    12
 71
     2
 72
     2
 73
     0
 90
        0
 40
-0.6
 41
-30.0
 62
     5
 63
     7
 74
     1
 91
        4
 64
     7
 65
   257
 75
     1
175
     1
 42
1.0
 92
        8
 66
     7
 43
1.0
 76
     1
 77
     6
 78
     2
 67
     7
 79
     5
170
     0
171
     0
290
     0
174
     0
 93
        1
 44
50.0
173
     0
291
     1
 45
0.0
  0
VISUALSTYLE
  5
131D8C
102
{ACAD_REACTORS
330
131D7C
102
}
330
131D7C
100
AcDbVisualStyle
  2
ColorChange
 70
    16
 71
     2
 72
     2
 73
     3
 90
        0
 40
-0.6
 41
-30.0
 62
     5
 63
     8
 74
     1
 91
        4
 64
     7
 65
   257
 75
     1
175
     1
 42
1.0
 92
        8
 66
     8
 43
1.0
 76
     1
 77
     6
 78
     2
 67
     7
 79
     5
170
     0
171
     0
290
     0
174
     0
 93
        1
 44
0.0
173
     0
291
     1
 45
0.0
  0
VISUALSTYLE
  5
131D85
102
{ACAD_REACTORS
330
131D7C
102
}
330
131D7C
100
AcDbVisualStyle
  2
Conceptual
 70
     9
 71
     3
 72
     2
 73
     0
 90
        0
 40
-0.6
 41
-30.0
 62
     5
 63
     7
 74
     2
 91
        2
 64
     7
 65
   257
 75
     1
175
     1
 42
40.0
 92
        8
 66
     7
 43
1.0
 76
     1
 77
     6
 78
     2
 67
     7
 79
     3
170
     0
171
     0
290
     0
174
     0
 93
        1
 44
0.0
173
     0
291
     0
 45
0.0
  0
VISUALSTYLE
  5
131D87
102
{ACAD_REACTORS
330
131D7C
102
}
330
131D7C
100
AcDbVisualStyle
  2
Dim
 70
    11
 71
     2
 72
     2
 73
     0
 90
        0
 40
-0.6
 41
-30.0
 62
     5
 63
     7
 74
     1
 91
        4
 64
     7
 65
   257
 75
     1
175
     1
 42
1.0
 92
        8
 66
     7
 43
1.0
 76
     1
 77
     6
 78
     2
 67
     7
 79
     5
170
     0
171
     0
290
     0
174
     0
 93
        1
 44
-50.0
173
     0
291
     1
 45
0.0
  0
VISUALSTYLE
  5
131D8B
102
{ACAD_REACTORS
330
131D7C
102
}
330
131D7C
100
AcDbVisualStyle
  2
Facepattern
 70
    15
 71
     2
 72
     2
 73
     0
 90
        0
 40
-0.6
 41
-30.0
 62
     5
 63
     7
 74
     1
 91
        4
 64
     7
 65
   257
 75
     1
175
     1
 42
1.0
 92
        8
 66
     7
 43
1.0
 76
     1
 77
     6
 78
     2
 67
     7
 79
     5
170
     0
171
     0
290
     0
174
     0
 93
        1
 44
0.0
173
     0
291
     1
 45
0.0
  0
VISUALSTYLE
  5
131D7D
102
{ACAD_REACTORS
330
131D7C
102
}
330
131D7C
100
AcDbVisualStyle
  2
Flat
 70
     0
 71
     2
 72
     1
 73
     1
 90
        2
 40
-0.6
 41
30.0
 62
     5
 63
     7
 74
     0
 91
        4
 64
     7
 65
   257
 75
     1
175
     1
 42
1.0
 92
        8
 66
     7
 43
1.0
 76
     1
 77
     6
 78
     2
 67
     7
 79
     5
170
     0
171
     0
290
     0
174
     0
 93
       13
 44
0.0
173
     0
291
     1
 45
0.0
  0
VISUALSTYLE
  5
131D7E
102
{ACAD_REACTORS
330
131D7C
102
}
330
131D7C
100
AcDbVisualStyle
  2
FlatWithEdges
 70
     1
 71
     2
 72
     1
 73
     1
 90
        2
 40
-0.6
 41
30.0
 62
     5
 63
     7
 74
     1
 91
        4
 64
     7
 65
   257
 75
     1
175
     1
 42
1.0
 92
        0
 66
   257
 43
1.0
 76
     1
 77
     6
 78
     2
 67
     7
 79
     5
170
     0
171
     0
290
     0
174
     0
 93
       13
 44
0.0
173
     0
291
     1
 45
0.0
  0
VISUALSTYLE
  5
131D7F
102
{ACAD_REACTORS
330
131D7C
102
}
330
131D7C
100
AcDbVisualStyle
  2
Gouraud
 70
     2
 71
     2
 72
     2
 73
     1
 90
        2
 40
-0.6
 41
30.0
 62
     5
 63
     7
 74
     0
 91
        4
 64
     7
 65
   257
 75
     1
175
     1
 42
1.0
 92
        0
 66
     7
 43
1.0
 76
     1
 77
     6
 78
     2
 67
     7
 79
     5
170
     0
171
     0
290
     0
174
     0
 93
       13
 44
0.0
173
     0
291
     1
 45
0.0
  0
VISUALSTYLE
  5
131D80
102
{ACAD_REACTORS
330
131D7C
102
}
330
131D7C
100
AcDbVisualStyle
  2
GouraudWithEdges
 70
     3
 71
     2
 72
     2
 73
     1
 90
        2
 40
-0.6
 41
30.0
 62
     5
 63
     7
 74
     1
 91
        4
 64
     7
 65
   257
 75
     1
175
     1
 42
1.0
 92
        0
 66
   257
 43
1.0
 76
     1
 77
     6
 78
     2
 67
     7
 79
     5
170
     0
171
     0
290
     0
174
     0
 93
       13
 44
0.0
173
     0
291
     1
 45
0.0
  0
VISUALSTYLE
  5
131D8A
102
{ACAD_REACTORS
330
131D7C
102
}
330
131D7C
100
AcDbVisualStyle
  2
Linepattern
 70
    14
 71
     2
 72
     2
 73
     0
 90
        0
 40
-0.6
 41
-30.0
 62
     5
 63
     7
 74
     1
 91
        4
 64
     7
 65
   257
 75
     7
175
     7
 42
1.0
 92
        8
 66
     7
 43
1.0
 76
     1
 77
     6
 78
     2
 67
     7
 79
     5
170
     0
171
     0
290
     0
174
     0
 93
        1
 44
0.0
173
     0
291
     1
 45
0.0
  0
VISUALSTYLE
  5
131D86
102
{ACAD_REACTORS
330
131D7C
102
}
330
131D7C
100
AcDbVisualStyle
  2
Realistic
 70
     8
 71
     2
 72
     2
 73
     0
 90
        0
 40
-0.6
 41
-30.0
 62
     5
 63
     7
 74
     1
 91
        0
 64
     7
 65
   257
 75
     1
175
     1
 42
1.0
 92
        8
 66
     8
 43
1.0
 76
     1
 77
     6
 78
     2
 67
     7
 79
     5
170
     0
171
     0
290
     0
174
     0
 93
       13
 44
0.0
173
     0
291
     0
 45
0.0
  0
VISUALSTYLE
  5
131D89
102
{ACAD_REACTORS
330
131D7C
102
}
330
131D7C
100
AcDbVisualStyle
  2
Thicken
 70
    13
 71
     2
 72
     2
 73
     0
 90
        0
 40
-0.6
 41
-30.0
 62
     5
 63
     7
 74
     1
 91
        4
 64
     7
 65
   257
 75
     1
175
     1
 42
1.0
 92
       12
 66
     7
 43
1.0
 76
     1
 77
     6
 78
     2
 67
     7
 79
     5
170
     0
171
     0
290
     0
174
     0
 93
        1
 44
0.0
173
     0
291
     1
 45
0.0
  0
DICTIONARYVAR
  5
131F4E
102
{ACAD_REACTORS
330
131D27
102
}
330
131D27
100
DictionaryVariables
280
     0
  1
STANDARD
  0
DICTIONARYVAR
  5
131D28
102
{ACAD_REACTORS
330
131D27
102
}
330
131D27
100
DictionaryVariables
280
     0
  1
2
  0
DICTIONARYVAR
  5
132D03
102
{ACAD_REACTORS
330
131D27
102
}
330
131D27
100
DictionaryVariables
280
     0
  1
1
  0
DICTIONARYVAR
  5
132D02
102
{ACAD_REACTORS
330
131D27
102
}
330
131D27
100
DictionaryVariables
280
     0
  1
0
  0
DICTIONARYVAR
  5
132D01
102
{ACAD_REACTORS
330
131D27
102
}
330
131D27
100
DictionaryVariables
280
     0
  1
127
  0
ENDSEC
  0
EOF
